<?xml version="1.0" standalone="no"?>
<!DOCTYPE svg PUBLIC "-//W3C//DTD SVG 1.1//EN" "http://www.w3.org/Graphics/SVG/1.1/DTD/svg11.dtd" >
<!--
2013-9-30: Created.
-->
<svg>
<metadata>
Created by iconfont
</metadata>
<defs>

<font id="iconfont" horiz-adv-x="1024" >
  <font-face
    font-family="iconfont"
    font-weight="500"
    font-stretch="normal"
    units-per-em="1024"
    ascent="896"
    descent="-128"
  />
    <missing-glyph />
    
    <glyph glyph-name="yue" unicode="&#59166;" d="M698.8514862 566.6170806800001a80.6724701 80.6724701 0 0 1 12.45108033 34.71693421c3.27777099 27.71273804-6.30340576 55.11401367-26.99711609 77.1611023-36.35581971 38.73999023-79.74549865 29.12915039-97.60638427 18.63212585l-59.5560608-36.8230133a22.68484497 22.68484497 0 0 0-12.60681152-3.28147888h-0.97888184a22.69226075 22.69226075 0 0 0-12.60681152 3.28147888l-59.18527221 36.60054016-0.37078859 0.21876526c-17.86088562 10.49702453-61.25427247 20.10415649-97.61009216-18.63212586-35.62165833-37.95762635-29.8299408-80.94314575-14.34951782-108.5223999A286.07450867 286.07450867 0 0 1 215.36914062 342.53842163C215.36914062 183.43304443 348.43774414 53.99816894000003 512 53.99816894000003s296.63085938 129.43858338 296.63085938 288.54396057a286.99035645 286.99035645 0 0 1-109.77937318 224.07495117zM370.95202636 651.17912292c24.07901001 25.65856934 48.72161865 13.50782776 51.68792726 11.89860536l58.91088867-36.42626954a64.287323 64.287323 0 0 1 65.01777648 0l58.81819154 36.37435913c3.55586242 1.90585328 27.93891907 13.55232239 51.76950073-11.84669495 16.92279052-18.03515625 17.64212036-35.9664917 16.56683349-45.07305907-1.31629943-11.10511779-6.46655273-19.78157044-10.87522888-22.61810304-57.32020568-36.84526062-115.19659424-64.96586609-140.095047-74.87704467a18.53942872 18.53942872 0 0 0-13.61535644-0.04820252c-28.36903381 11.0532074-98.52593994 40.16011047-141.27044678 73.02310181-9.19555664 10.27084351-24.52024841 40.1786499 3.08496094 69.59330749zM512 93.19052123999995c-142.68315125 0-258.76222229 111.85578919-258.76222229 249.34790039a246.85249328 246.85249328 0 0 0 103.33506775 199.35076905C403.12535096 509.62687683 468.22840881 482.62976075 495.77799988 471.87689209a55.14738464 55.14738464 0 0 1 40.53460694 0.14089966c28.76948547 11.4425354 80.77629089 37.34953308 132.09342956 69.10386658 65.05485534-47.63520813 102.35618591-119.86482239 102.35618591-198.5832367 0-137.4921112-116.07907104-249.34790039-258.76222229-249.34790039zM592.04212951 290.13487244H529.79785156v27.26408386h62.25540161a19.65179443 19.65179443 0 0 1 0 39.26280212h-40.91651916l52.39242554 54.60974121a20.23022461 20.23022461 0 0 1 0 27.76464844 18.30583191 18.30583191 0 0 1-26.63745117 0l-64.99552918-67.75048828c-0.31887817 0-0.61921692 0.09640503-0.94180298 0.09640503a18.16864013 18.16864013 0 0 1-2.89215088-0.30033875L442.86647034 439.03244018a18.30212402 18.30212402 0 0 1-26.63374329 0 20.22651672 20.22651672 0 0 1 0-27.76464843L468.61773682 356.66175841999996H429.86291503a19.65179443 19.65179443 0 0 1 0-39.26280212h62.25540162v-27.26408386h-62.25540162a19.65179443 19.65179443 0 0 1 0-39.26280213h62.25540162v-68.16206359a18.85089112 18.85089112 0 1 1 37.66841126 0V250.88690184999996h62.2554016a19.65179443 19.65179443 0 0 1 0 39.24797059z"  horiz-adv-x="1024" />

    
    <glyph glyph-name="tubiaozhizuomoban1" unicode="&#58884;" d="M858.7 100.94C921.76 178.08 959.66 276.59 959.66 384a446.067 446.067 0 0 1-39.04 183.09 160.46 160.46 0 0 0-52.51-39.91c17.78-44.26 27.6-92.57 27.6-143.19 0-83.57-27.02-160.67-72.39-223.69-46.46 64.47-112.38 113.85-189.23 139.65 42.6 35.19 69.76 88.42 69.76 147.99 0 105.96-85.9 191.85-191.85 191.85s-191.85-85.9-191.85-191.85c0-59.6 27.17-112.85 69.81-148.04-75.74-25.42-142.13-74.03-189.3-139.58-45.35 63.01-72.36 140.1-72.36 223.66 0 211.9 171.81 383.71 383.71 383.71 49.06 0.06 97.67-9.3 143.19-27.59a160.439 160.439 0 0 0 39.91 52.54C639.2 817.72 577.23 831.66 512 831.66 264.76 831.66 64.34 631.24 64.34 384c0-107.41 37.9-205.92 100.96-283.06-0.01-0.03-0.03-0.05-0.04-0.08 0.18-0.22 0.4-0.41 0.58-0.64 9.83-11.97 20.29-23.39 31.29-34.28 4.04-4.01 8.4-7.59 12.57-11.43 7.22-6.63 14.46-13.21 22.1-19.35 5.19-4.17 10.58-7.99 15.94-11.92 7.22-5.3 14.49-10.48 22.03-15.34 5.57-3.59 11.23-6.96 16.95-10.3 7.9-4.62 15.93-8.99 24.13-13.12 5.64-2.84 11.29-5.61 17.05-8.21 8.75-3.96 17.68-7.52 26.72-10.92 5.58-2.1 11.11-4.27 16.78-6.14 9.59-3.17 19.39-5.81 29.26-8.34 5.43-1.4 10.79-2.99 16.28-4.18 10.58-2.29 21.39-3.9 32.24-5.43 4.97-0.7 9.87-1.73 14.87-2.27 15.77-1.68 31.74-2.64 47.95-2.64 16.21 0 32.19 0.96 47.95 2.64 5.01 0.54 9.9 1.57 14.87 2.27 10.85 1.53 21.66 3.14 32.24 5.43 5.49 1.19 10.84 2.79 16.27 4.18 9.87 2.53 19.68 5.17 29.27 8.34 5.66 1.87 11.19 4.04 16.76 6.13 9.04 3.4 17.98 6.97 26.74 10.93 5.76 2.6 11.4 5.37 17.04 8.21 8.2 4.14 16.23 8.5 24.13 13.12 5.72 3.33 11.38 6.71 16.95 10.3 7.54 4.87 14.81 10.05 22.03 15.34 5.36 3.92 10.75 7.75 15.94 11.92 7.64 6.15 14.88 12.73 22.1 19.35 4.18 3.84 8.53 7.42 12.57 11.43 11 10.89 21.46 22.31 31.29 34.28 0.18 0.22 0.4 0.41 0.58 0.64a0.16 0.16 0 0 1-0.03 0.08zM384.1 447.95c0 70.64 57.26 127.9 127.9 127.9 70.64 0 127.9-57.26 127.9-127.9s-57.27-127.9-127.9-127.9c-70.64 0-127.9 57.26-127.9 127.9zM512 256.1c108.47 0.05 209.56-54.92 268.49-145.98-4.24-4.16-8.76-8.03-13.18-11.98-4.21-3.77-8.3-7.71-12.66-11.28-5.68-4.65-11.7-8.88-17.65-13.2-4.03-2.93-7.94-6.04-12.08-8.81-6.06-4.05-12.42-7.66-18.72-11.37-4.4-2.58-8.68-5.36-13.17-7.77-6.13-3.29-12.51-6.12-18.84-9.08-4.96-2.31-9.83-4.83-14.88-6.93-6.26-2.61-12.76-4.74-19.19-7.02-5.31-1.88-10.53-3.98-15.93-5.62-6.96-2.13-14.13-3.73-21.24-5.46-5.01-1.22-9.95-2.7-15.02-3.72-8.71-1.75-17.63-2.91-26.55-4.05-3.62-0.47-7.18-1.22-10.82-1.58A386.903 386.903 0 0 0 512 0.3c-13.02 0-25.88 0.68-38.56 1.95-3.64 0.36-7.2 1.12-10.82 1.58-8.92 1.15-17.84 2.3-26.55 4.05-5.07 1.02-10.01 2.49-15.02 3.72-7.12 1.73-14.29 3.34-21.24 5.46-5.39 1.65-10.62 3.74-15.93 5.62-6.43 2.28-12.93 4.41-19.19 7.02-5.05 2.1-9.92 4.62-14.88 6.93-6.32 2.96-12.71 5.79-18.84 9.08-4.49 2.4-8.77 5.18-13.17 7.77-6.3 3.71-12.66 7.32-18.72 11.37-4.12 2.75-8.02 5.86-12.04 8.78-5.96 4.33-12 8.58-17.7 13.24-4.32 3.54-8.37 7.44-12.55 11.18-4.46 3.99-9.01 7.88-13.28 12.07C302.44 201.18 403.52 256.15 512 256.1zM799.78 671.78m-95.93 0a95.93 95.93 0 1 1 191.86 0 95.93 95.93 0 1 1-191.86 0Z"  horiz-adv-x="1024" />

    
    <glyph glyph-name="tubiaozhizuomoban" unicode="&#58883;" d="M859.27 100.58C922.41 177.82 960.35 276.46 960.35 384c0.06 43.67-6.72 86.89-19.18 128.53-0.53 1.76-0.89 3.59-1.44 5.35-3.29 10.51-7.29 20.78-11.36 31.05-1.52 3.85-2.85 7.78-4.47 11.57-0.96 2.25-1.64 4.6-2.64 6.83-0.13-0.16-0.31-0.27-0.45-0.42-44.92 100.26-125.48 180.87-225.71 225.88 0.13 0.12 0.22 0.27 0.36 0.38-1.9 0.85-3.94 1.44-5.86 2.27-5.7 2.47-11.6 4.52-17.42 6.75-8.06 3.09-16.05 6.27-24.32 8.9-6.58 2.09-13.37 3.66-20.08 5.46-7.84 2.09-15.58 4.39-23.58 6.06-8.09 1.69-16.4 2.72-24.64 3.97-6.91 1.04-13.7 2.44-20.71 3.16-13.82 1.44-27.87 2.09-42.04 2.24-1.58 0.02-3.09 0.25-4.67 0.25-0.04 0-0.09-0.01-0.13-0.01-0.04 0-0.08 0.01-0.13 0.01C264.32 832.23 63.65 631.55 63.65 384c0-125.31 51.55-238.48 134.45-319.82 1.42-1.4 2.96-2.63 4.4-4 9.79-9.36 19.95-18.32 30.56-26.77 3.52-2.8 7.17-5.36 10.77-8.05 8.94-6.69 18.06-13.13 27.5-19.15 4.22-2.69 8.5-5.24 12.81-7.78 9.32-5.52 18.83-10.69 28.57-15.54 4.45-2.21 8.88-4.39 13.4-6.45 10.01-4.57 20.24-8.68 30.63-12.52 4.48-1.66 8.91-3.41 13.45-4.92 10.75-3.58 21.73-6.58 32.82-9.35 4.41-1.11 8.75-2.42 13.2-3.39 11.65-2.53 23.54-4.37 35.51-5.98 4.02-0.55 7.96-1.4 12-1.83 15.83-1.69 31.88-2.67 48.16-2.67 0.04 0 0.08 0.01 0.13 0.01 0.04 0 0.09-0.01 0.13-0.01 16.23 0 32.23 0.97 48.01 2.65 5.01 0.54 9.91 1.57 14.89 2.27 10.86 1.53 21.68 3.14 32.28 5.43 5.5 1.19 10.86 2.79 16.3 4.19 9.88 2.53 19.7 5.17 29.31 8.35 5.67 1.87 11.2 4.04 16.78 6.14 9.06 3.41 18 6.98 26.77 10.94 5.76 2.6 11.42 5.38 17.07 8.22 8.21 4.14 16.25 8.51 24.16 13.14 5.72 3.34 11.39 6.72 16.97 10.31 7.55 4.87 14.83 10.06 22.06 15.36 5.36 3.93 10.77 7.76 15.96 11.93 7.65 6.15 14.9 12.74 22.13 19.38 4.18 3.84 8.55 7.43 12.59 11.44 11.01 10.9 21.49 22.34 31.33 34.32 0.18 0.22 0.4 0.41 0.58 0.64a0.236 0.236 0 0 0-0.06 0.09zM384.06 448.03c0 70.73 57.34 128.06 128.06 128.06 70.73 0 128.06-57.34 128.06-128.06s-57.34-128.06-128.06-128.06-128.06 57.33-128.06 128.06z m342.47-382.7c-9.11-6.15-18.58-11.78-28.22-17.14-1.31-0.72-2.55-1.57-3.86-2.28-8.88-4.81-18.09-9.08-27.38-13.19-2.21-0.97-4.33-2.12-6.55-3.05-8.8-3.7-17.88-6.84-27-9.88-2.82-0.94-5.57-2.09-8.41-2.97-9.27-2.85-18.79-5.13-28.35-7.29-2.76-0.62-5.46-1.48-8.23-2.04-10.85-2.2-21.91-3.78-33.07-5.05-1.54-0.17-3.05-0.52-4.59-0.67a386.991 386.991 0 0 0-38.87-1.96c-12.99 0-25.83 0.68-38.48 1.94-3.64 0.37-7.21 1.12-10.83 1.58-8.93 1.15-17.86 2.31-26.58 4.06-5.07 1.02-10.02 2.5-15.04 3.72-7.13 1.74-14.31 3.34-21.27 5.47-5.4 1.65-10.63 3.75-15.95 5.63-6.44 2.28-12.94 4.42-19.22 7.03-5.06 2.1-9.93 4.62-14.9 6.94-6.33 2.96-12.73 5.8-18.86 9.09-4.49 2.41-8.79 5.19-13.19 7.78-6.31 3.71-12.68 7.33-18.75 11.39-4.13 2.76-8.03 5.87-12.05 8.79-5.97 4.34-12.01 8.59-17.72 13.25-4.33 3.54-8.38 7.45-12.57 11.2-4.47 3.99-9.02 7.89-13.3 12.08 59 91.18 160.22 146.22 268.83 146.17 108.56 0.05 209.71-54.95 268.73-146.04-16.4-16.1-34.17-30.81-53.24-43.77-0.36-0.25-0.7-0.54-1.08-0.79zM896.07 384c0-83.6-27-160.74-72.35-223.81-46.51 64.47-112.47 113.85-189.35 139.66 42.66 35.23 69.85 88.53 69.85 148.18 0 106.09-86.01 192.1-192.1 192.1-106.09 0-192.1-86-192.1-192.1 0-59.67 27.21-112.99 69.9-148.22-75.84-25.46-142.31-74.12-189.54-139.75-45.41 63.09-72.45 140.28-72.45 223.94 0 212.13 171.95 384.12 384.07 384.19 12.99 0 25.83-0.68 38.48-1.94 2.52-0.25 5-0.78 7.51-1.08 10.06-1.21 20.07-2.59 29.87-4.56 3.51-0.7 6.94-1.73 10.43-2.53 8.77-2.02 17.52-4.09 26.05-6.7 3.44-1.05 6.79-2.4 10.21-3.54C786.5 696.6 896.07 553.23 896.07 384z"  horiz-adv-x="1024" />

    
    <glyph glyph-name="icon-test" unicode="&#58941;" d="M128 0h768v64H128zM256 192v146.752l224 224L626.752 416l-224-224H256zM608 690.752L754.752 544 672 461.248 525.248 608 608 690.752z m214.624-169.408l0.032 0.032a32 32 0 0 1 0 45.248l-0.032 0.032-191.968 191.968-0.032 0.032a32 32 0 0 1-45.248 0l-0.032-0.032L192 365.248V128h237.248l393.376 393.344z"  horiz-adv-x="1024" />

    
    <glyph glyph-name="shouji" unicode="&#59138;" d="M845.75 157.78124999v-112.12499998c0-44.0625-35.71875001-79.78125001-79.78124999-79.78125001H265.53124999c-44.0625 0-79.78125001 35.71875001-79.78124999 79.78125001V157.78124999h660z m-330-45.28125c-27.3975 0-49.6078125-22.20374999-49.6078125-49.59374998 0-27.39 22.209375-49.59375001 49.6078125-49.59375001 27.3975 0 49.6078125 22.20374999 49.6078125 49.59375001 0 27.39-22.209375 49.59375001-49.6078125 49.59374998zM765.96875001 806.8125c44.0625 0 79.78125001-35.71875001 79.78124999-79.78125001v-511.03124999H185.75V727.03124999c0 44.0625 35.71875001 79.78125001 79.78125001 79.78125001h500.4375z m-137.58281251-64.6875H403.593125l-0.66187501-0.0075c-15.18000001-0.35156251-27.376875-12.7640625-27.37687499-28.02374999 0-15.4809375 12.553125-28.03125002 28.03875-28.03125001h224.7928125l0.661875 0.0075c15.18000001 0.35156251 27.376875 12.7640625 27.376875 28.02374999 0 15.4809375-12.553125 28.03125002-28.03875 28.03125001z"  horiz-adv-x="1024" />

    
    <glyph glyph-name="duanxin" unicode="&#58906;" d="M112.4352 603.5968a25.6 25.6 0 0 0 14.848-4.7616l369.8688-263.8848a25.6 25.6 0 0 1 29.696 0l369.8688 263.8848a25.6 25.6 0 0 0 40.448-20.8384v-431.1552c0-38.7072-31.3344-70.0416-69.9904-70.0416H156.8256a70.0416 70.0416 0 0 0-69.9904 70.0416V577.9968a25.6 25.6 0 0 0 25.6 25.6zM889.856 691.2a15.0016 15.0016 0 0 0 11.264-24.9856l-2.6112-2.304-371.712-262.0928a25.6 25.6 0 0 0-25.6-2.304l-3.9424 2.304-371.7632 262.144a15.0016 15.0016 0 0 0 5.2224 26.8288L134.144 691.2h755.712z"  horiz-adv-x="1024" />

    
    <glyph glyph-name="verify-fill" unicode="&#58942;" d="M903.71692468 749.2047808899999c-188.89902459 0-376.47244199 107.3741824-378.46085278 108.69978958-3.97682157 1.98841078-7.95364315 3.31401797-11.9304647 3.31401798-3.97682157 0-8.61644674-1.3256072-11.93046471-3.31401798-1.98841078-1.3256072-194.20145335-108.6997896-381.11206717-108.69978958-13.2560719 0-24.52373301-11.26766112-24.52373302-24.52373303v-342.00665506c0-151.78202327 71.58278827-282.3543315 206.79472167-377.13524558 100.74614645-70.91998467 200.16668571-96.76932489 204.14350726-97.43212847 1.98841078-0.66280359 3.97682157-0.66280359 5.96523236-0.6628036 1.98841078 0 3.97682157 0 5.96523236 0.6628036 3.97682157 1.3256072 102.73455724 27.17494739 203.48070369 98.75773565 134.54912979 95.44371769 205.46911447 225.35322231 205.46911446 376.47244201v341.34385145c0.66280359 13.2560719-10.60485751 24.52373301-23.86092942 24.52373303zM751.93490142 470.16446736L504.70916045 222.93872639999995c-6.62803595-6.62803595-15.24448269-9.94205392-23.86092942-9.94205392-9.27925033 0-17.89569707 3.31401797-23.86092943 9.94205392L303.87967115 376.04635685000005c-13.2560719 13.2560719-13.2560719 34.46578693 0.6628036 47.72185885a33.60362445 33.60362445 0 0 0 47.72185885 0l129.24670103-129.24670103L704.21304257 517.88632621c13.2560719 13.2560719 34.46578693 13.2560719 47.72185885-0.6628036a34.03082208 34.03082208 0 0 0 0-47.05905525z"  horiz-adv-x="1024" />

    
    <glyph glyph-name="off1" unicode="&#58897;" d="M706.56229714 618.1881081500001c-9.13438015 7.65548052-22.87944741 6.39406611-30.62192204-2.7838111-7.65548052-9.22137424-6.39406611-22.96644152 2.82730814-30.62192202C738.61962174 534.97825472 772.98228991 461.77272238 772.98228991 384c0-143.93173289-117.05055702-260.98228991-260.98228991-260.98228991s-260.98228991 117.05055702-260.98228991 260.98228991c0 77.81621945 34.36266816 150.97825472 94.2581037 200.78237503C354.49718804 592.43785555 355.75860244 606.13942576 348.05962489 615.40429705 340.36064733 624.58217425 326.70257417 625.93058274 317.43770286 618.1881081500001 247.58144327 560.1195486500001 207.52066178 474.7348428 207.52066178 384c0-167.85510946 136.58073171-304.47933822 304.47933822-304.47933822 167.85510946 0 304.47933822 136.62422877 304.47933822 304.47933822C816.47933822 474.7348428 776.41855673 560.1195486500001 706.56229714 618.1881081500001zM512 384c12.00518534 0 21.74852416 9.74333883 21.74852416 21.74852416l0 260.98228992C533.74852416 678.73599942 524.00518534 688.47933822 512 688.47933822S490.25147584 678.73599942 490.25147584 666.73081408l0-260.98228992C490.25147584 393.74333883 499.99481466 384 512 384z"  horiz-adv-x="1024" />

    
    <glyph glyph-name="logout" unicode="&#58932;" d="M718.01578036 356.84263352000005h-301.17519179A27.02157923 27.02157923 0 0 0 389.79185176 384a27.15736648 27.15736648 0 0 0 27.03515834 27.15736648h301.17519177l-102.99431138 103.00788987a27.15736648 27.15736648 0 0 0 38.4005155 38.40051612l149.36551472-149.36551472a27.15736648 27.15736648 0 0 0 0-38.4005155l-149.36551472-149.36551472a27.15736648 27.15736648 0 0 0-38.4005155 38.40051612L718.01578036 356.84263352000005zM539.15736648 682.73102883a27.15736648 27.15736648 0 1 0 0-54.31473236H281.28459459C273.68053246 628.41629648 267.58370352 622.31946754 267.58370352 614.7425623500001v-461.4851247C267.58370352 145.69411092999997 273.69411093 139.58370351999997 281.28459459 139.58370351999997H539.15736648a27.15736648 27.15736648 0 1 0 0-54.31473235H281.28459459A67.98846648 67.98846648 0 0 0 213.26897117 153.25743765000004V614.7425623500001A67.96130889 67.96130889 0 0 0 281.28459459 682.73102883H539.15736648z"  horiz-adv-x="1024" />

    
    <glyph glyph-name="xinbaniconshangchuan-" unicode="&#58892;" d="M767.43212916 266.99560522c-13.183594 6.59179662-21.42333959 14.83154297-28.01513697 28.01513697-11.53564428 24.71923828-9.88769531 56.03027318-8.23974635 90.63720678 1.64794897 24.71923828 3.29589869 49.43847656 0 72.50976587-6.59179662 46.14257787-24.71923828 85.69335912-49.43847656 118.65234375-36.25488256 44.49462891-88.98925781 74.15771484-145.019531 80.74951147v16.47949269c0 13.183594-11.53564428 24.71923828-24.71923828 24.71923828s-24.71923828-11.53564428-24.71923828-24.71923828v-18.12744166c-18.12744166-1.64794897-36.25488256-6.59179662-54.38232422-13.183594-62.62207057-26.36718725-113.70849609-80.74951147-133.48388672-149.96337865-9.88769531-34.60693359-8.23974635-67.56591822-6.59179662-102.17285182 1.64794897-37.90283228 4.94384766-74.15771484-11.53564504-102.17285105-4.94384766-9.88769531-11.53564428-13.183594-28.01513621-19.77539063-23.07128932-11.53564428-37.90283228-34.60693359-37.90283229-60.9741216 1.64794897-32.95898463 28.01513697-60.97412084 62.62207057-60.97412084h126.89208934C413.12304687 93.96093725000003 457.61767578 54.41015600000003 512 54.41015600000003s100.52490209 41.19873022 107.11669947 92.2851565h126.89208934c34.60693359 0 60.97412084 28.01513697 60.9741216 62.62207057 1.64794897 36.25488256-26.36718725 51.08642553-39.55078125 57.67822215zM512 102.20068359000004c-28.01513697 0-49.43847656 18.12744166-57.67822291 42.84667994h113.70849609c-6.59179662-24.71923828-28.01513697-42.84667994-56.03027318-42.84667994z m234.00878881 93.93310547H277.99121119c-6.59179662 0-11.53564428 6.59179662-13.183594 13.18359401 0 6.59179662 3.29589869 11.53564428 8.23974634 13.18359324 16.47949193 6.59179662 36.25488256 16.47949193 49.43847657 41.19873097 24.71923828 41.19873022 21.42333959 87.34130885 18.1274409 130.18798803-1.64794897 29.66308594-3.29589869 59.32617188 3.29589869 84.04541016 16.47949193 54.38232422 56.03027318 97.22900416 105.46874974 117.00439478 18.12744166 8.23974635 37.90283228 11.53564428 57.67822291 11.53564428h1.64794897c49.43847656 0 98.87695313-23.07128932 131.83593775-64.27001953 19.77539063-24.71923828 34.60693359-57.67822291 39.55078125-93.93310547 3.29589869-18.12744166 1.64794897-39.55078125 0-62.62207056-1.64794897-37.90283228-4.94384766-77.45361353 13.18359401-113.7084961 9.88769531-21.42333959 26.36718725-39.55078125 49.43847656-49.43847656 13.183594-6.59179662 13.183594-8.23974635 13.18359324-13.18359324 3.29589869-8.23974635-1.64794897-13.183594-9.88769531-13.18359401z"  horiz-adv-x="1024" />

    
    <glyph glyph-name="coupon" unicode="&#58903;" d="M818.28077686 456.06768394c17.5262779 11.63493991 18.01655888 20.5316931 18.01655888 36.03384196V600.19653404c0 29.84992862-24.19974804 54.04967665-54.04967665 54.04967664H241.75161673c-29.84920443 0-54.04895246-24.19974804-54.04895248-54.04967664v-108.09500814c0-16.14668369 1.12395286-26.91693306 18.01655889-36.03384196 24.61398841-11.46185696 54.04967665-34.62021052 54.04967665-72.06913233 0-48.59792589-30.54877817-64.40930663-52.98728048-71.98729813-15.79327583-9.88383293-19.07967925-26.16014779-19.07967925-36.10843421v-108.09935331c0-29.8535496 24.19974804-54.04967665 54.04967665-54.04967664h540.49604238c29.84992862 0 54.04967665 24.19540286 54.04967665 54.04967664V275.90209508c0 19.6778655-4.51898574 25.91464519-18.01655888 36.03384197-39.35138583 20.2869147-54.04967665 38.34620119-54.04967665 72.06623554 0.0007242 33.72003436 13.76552582 50.49966575 54.05040085 72.06551135zM800.26494217 282.51835371000004v-96.70194984c0-19.89657283-16.13219975-36.03311778-36.03384197-36.03311778H259.76817561c-19.90091801 0-36.03384197 16.13509657-36.03384198 36.03311777V282.51835371000004c41.89259111 14.89309967 72.06695975 54.48274612 72.06695975 101.4801979 0 47.00179696-30.17436862 86.59071922-72.06695975 101.47947371V582.1806993499999c0 19.90091801 16.13219975 36.03311778 36.03384198 36.03311778H764.23037601c19.90091801 0 36.03384197-16.13147557 36.03384196-36.03311778v-96.70194984c-41.88897013-14.88947869-72.06695975-54.47912514-72.06695973-101.4801979 0-46.99817599 30.1779896-86.58782244 72.06695973-101.48092211z m-189.1745925 137.51766085H543.07526898l73.83182645 79.32630479c3.19298209 3.48845422 3.19298209 9.14877355 2e-8 12.64084876l-11.55527832 12.64012456c-3.19298209 3.49207521-8.36302043 3.49207521-11.55600248 0L511.91382062 436.67080665l-81.91385864 88.00072968c-3.1676352 3.46310735-8.30291212 3.46310735-11.46620215 0l-11.46620214-12.54308224c-3.1676352-3.46310735-3.1676352-9.07707811 0-12.54018545l74.05198216-79.55297829H412.90820193c-4.9766779 0-9.00900364-4.03667093-9.00900364-9.00900364v-18.02017985c0-4.97595369 4.03232575-9.00900364 9.00900364-9.00900364h81.0737908v-36.03239357h-81.0737908c-4.9766779 0-9.00900364-4.03232575-9.00900364-9.00900364v-18.01583469c0-4.97305691 4.03232575-9.00900364 9.00900364-9.00900364h81.0737908v-63.05795611c0-4.97233271 4.03232575-9.00827945 9.00900363-9.00827944h18.0158347c4.9766779 0 9.00900364 4.03594673 9.00900363 9.00900364v63.0572319h81.07379079c4.9766779 0 9.00900364 4.03594673 9.00900364 9.00900365V338.95498180000004c0 4.9766779-4.03232575 9.00900364-9.00900364 9.00900365h-81.07379079v36.03311777h81.07379079c4.9766779 0 9.00900364 4.03232575 9.00900364 9.00900364v18.01945566c0 4.97305691-4.03232575 9.00900364-9.00900364 9.00900365z"  horiz-adv-x="1024" />

    
    <glyph glyph-name="qiandao" unicode="&#59082;" d="M685.82887006 426.56102442c-9.2407465 9.2407465-24.21712876 9.2407465-33.45787525 0L472.52405238 246.70684002999997 371.77384448 347.45704793000004c-9.2407465 9.2407465-24.21712876 9.2407465-33.45787526 0-9.2407465-9.2407465-9.2407465-24.21712876 0-33.45787525l117.30533839-117.30533838c4.65658307-4.65658307 10.77604294-6.93780184 16.88101887-6.901592 6.1122179-0.04345179 12.23891974 2.23052502 16.90998674 6.89435004l196.40931488 196.41655684c9.2407465 9.2407465 9.2407465 24.21712876 0.00724196 33.45787524zM762.09399653 649.99735022h-70.59466841v13.75249027c0 13.06450367-10.59499384 23.6594975-23.65949748 23.6594975s-23.6594975-10.59499384-23.65949751-23.6594975v-13.75249028H379.95726418v13.75249028c0 13.06450367-10.59499384 23.6594975-23.6594975 23.6594975s-23.6594975-10.59499384-23.6594975-23.6594975v-13.75249028h-70.59466838c-39.83804584 0-72.23859429-32.40779042-72.2385943-72.23135233v-425.11054872c0-39.83804584 32.40779042-72.23859429 72.2385943-72.2385943h500.05039573c39.83804584 0 72.23859429 32.40779042 72.23859428 72.2385943V577.76599788c0.00724196 39.8235619-32.40054847 72.23135233-72.23859428 72.23135234z m-500.05039573-47.31175304h70.59466838v-13.74524831c0-13.06450367 10.59499384-23.6594975 23.6594975-23.6594975s23.6594975 10.59499384 23.6594975 23.6594975v13.74524831h264.23755289v-13.74524831c0-13.06450367 10.59499384-23.6594975 23.65949749-23.6594975s23.6594975 10.59499384 23.6594975 23.6594975v13.74524831h70.59466839c13.74524832 0 24.92684125-11.18159294 24.92684127-24.9195993v-66.21327996H237.11675954v66.21327996c0 13.73800635 11.18159294 24.9195993 24.92684126 24.9195993z m500.05039573-474.96423126H262.0436008c-13.74524832 0-24.92684125 11.18159294-24.92684126 24.92684126V464.24096489h549.90407825v-311.58551573c0.00724196-13.75249028-11.17435099-24.93408322-24.92684126-24.93408324z"  horiz-adv-x="1024" />

    
    <glyph glyph-name="jifen" unicode="&#58996;" d="M833.81479037 575.4594322400001C817.5203706 652.85792613 683.09140753 709.88839531 512 709.88839531S206.4796294 652.85792613 190.18520963 575.4594322400001C186.11160469 571.3858273000001 186.11160469 563.23861743 186.11160469 559.16501247L186.11160469 384l0-162.94419766c0 0 0-4.07360495 0-4.07360494 0-4.07360495 0-4.07360495 0-8.14720988C186.11160469 123.28928374999998 324.6141727 58.111604690000036 512 58.111604690000036s325.88839531 65.17767906 325.88839531 150.72338284c0 4.07360495 0 4.07360495 0 8.14720987 0 0 0 4.07360495 0 4.07360494L837.88839531 384 837.88839531 559.16501247C837.88839531 563.23861743 837.88839531 571.3858273000001 833.81479037 575.4594322400001zM797.1523459 286.23348140999997l0-28.51523459 0-16.29441976 0-32.58883954c0-4.07360495 0-4.07360495 0-8.14720989-12.22081482-48.88325931-126.28175318-101.84012354-285.1523459-101.84012353s-272.93153108 52.95686423-285.1523459 101.84012353c0 4.07360495 0 4.07360495 0 8.14720989l0 32.58883954 0 16.29441976 0 28.51523459L226.8476541 310.67511105000006C230.92125905 302.52790116999995 234.99486399 302.52790116999995 243.14207387 298.45429623999996c8.14720987-4.07360495 12.22081482-8.14720987 20.36802471-12.22081483 8.14720987-4.07360495 16.29441978-8.14720987 20.3680247-12.22081483 32.58883953-16.29441978 73.32488895-24.44162965 114.06093837-32.58883952C434.60150611 237.35022211 471.2639506 233.27661716 512 233.27661716s77.39849389 4.07360495 114.06093836 8.1472099c44.80965436 8.14720987 81.47209883 16.29441978 114.06093836 32.58883952 8.14720987 4.07360495 16.29441978 8.14720987 20.3680247 12.22081483 8.14720987 4.07360495 12.22081482 8.14720987 20.36802471 12.22081483C789.00513601 302.52790116999995 793.07874095 302.52790116999995 797.1523459 310.67511105000006L797.1523459 286.23348140999997zM797.1523459 457.32488895l0-28.51523459L797.1523459 384c0-20.36802471-20.36802471-44.80965436-57.03046918-65.17767906-8.14720987-4.07360495-16.29441978-8.14720987-24.44162966-12.22081483-8.14720987-4.07360495-20.36802471-8.14720987-32.58883953-12.22081482-44.80965436-12.22081482-105.91372848-24.44162965-171.09140753-24.44162965s-126.28175318 8.14720987-171.09140753 24.44162965C328.68777763 298.45429623999996 320.54056776 302.52790116999995 308.31975294 306.60150610999995 300.17254304 310.67511105000006 292.02533317 314.74871599999994 283.87812328 318.82232094000005 247.21567881 339.19034564000003 226.8476541 363.63197529 226.8476541 384L226.8476541 428.80965436 226.8476541 457.32488895 226.8476541 481.76651859c4.07360495-4.07360495 8.14720987-8.14720987 16.29441977-12.22081483C247.21567881 465.47209883 255.3628887 461.39849389 263.51009858 457.32488895 267.58370352 457.32488895 275.7309134 453.251284 283.87812328 449.17767906c57.03046918-24.44162965 138.50256801-40.7360494 228.12187672-40.73604941s171.09140753 16.29441978 228.12187672 40.73604941c8.14720987 4.07360495 16.29441978 8.14720987 20.3680247 12.22081483 8.14720987 4.07360495 12.22081482 8.14720987 20.36802471 12.22081482 4.07360495 4.07360495 12.22081482 8.14720987 16.29441977 12.22081483L797.1523459 457.32488895zM793.07874095 546.94419766c-4.07360495-20.36802471-24.44162965-36.66244448-57.03046918-52.95686424-8.14720987-4.07360495-16.29441978-8.14720987-24.44162965-12.22081483-8.14720987-4.07360495-20.36802471-8.14720987-32.58883952-12.22081483C638.28175318 457.32488895 577.17767906 449.17767906 512 449.17767906S385.71824682 457.32488895 340.90859247 469.54570376C328.68777763 473.61930871 320.54056776 477.69291365 308.31975294 481.76651859 300.17254304 485.84012354 292.02533317 489.91372848 283.87812328 493.98733342 255.3628887 510.28175318 234.99486399 526.57617294 230.92125905 546.94419766 226.8476541 551.0178026 226.8476541 555.09140753 226.8476541 559.16501247 226.8476541 567.31222237 230.92125905 579.53303719 239.06846892 587.68024706 271.65730845 628.41629648 373.49743199 669.1523459 512 669.1523459s240.34269155-40.7360494 272.93153108-81.47209884C793.07874095 579.53303719 797.1523459 567.31222237 797.1523459 559.16501247 797.1523459 555.09140753 797.1523459 551.0178026 793.07874095 546.94419766z"  horiz-adv-x="1024" />

    
    <glyph glyph-name="marks" unicode="&#59103;" d="M376.8 509.632h-77.408L259.248 96h507.12L726.24 509.632h-77.408v-50.08a16 16 0 0 0-16-16h-16a16 16 0 0 0-16 16v50.08h-176v-50.08a16 16 0 0 0-16-16h-16a16 16 0 0 0-16 16v50.08z m0 48v1.824c0 79.456 60.48 144.544 136 144.544 75.52 0 136-65.088 136-144.544v-1.824h106.48a16 16 0 0 0 15.92-14.464l46.352-477.616A16 16 0 0 0 801.632 48H224a16 16 0 0 0-15.92 17.552l46.352 477.616a16 16 0 0 0 15.92 14.464h106.464z m224 0v1.824c0 53.696-39.792 96.544-88 96.544-48.176 0-88-42.848-88-96.544v-1.824h176z"  horiz-adv-x="1024" />

    
    <glyph glyph-name="instruction" unicode="&#59106;" d="M353.855 513.135v15a15 15 0 0 0 15 15h22.17a15 15 0 0 0 15-15v-15a15 15 0 0 0-15-15h-22.17a15 15 0 0 0-15 15z m93.9 0v15a15 15 0 0 0 15 15H641.45a15 15 0 0 0 15-15v-15a15 15 0 0 0-15-15H462.755a15 15 0 0 0-15 15z m-93.9-135.66v15a15 15 0 0 0 15 15h22.17a15 15 0 0 0 15-15v-15a15 15 0 0 0-15-15h-22.17a15 15 0 0 0-15 15z m93.9 0v15a15 15 0 0 0 15 15H641.45a15 15 0 0 0 15-15v-15a15 15 0 0 0-15-15H462.755a15 15 0 0 0-15 15z m-93.9-135.645v15a15 15 0 0 0 15 15h22.17a15 15 0 0 0 15-15v-15a15 15 0 0 0-15-15h-22.17a15 15 0 0 0-15 15z m93.9 0v15a15 15 0 0 0 15 15H641.45a15 15 0 0 0 15-15v-15a15 15 0 0 0-15-15H462.755a15 15 0 0 0-15 15zM272 639v-508.05h466.305V639H272z m496.305-553.05H242a15 15 0 0 0-15 15V669a15 15 0 0 0 15 15h526.305a15 15 0 0 0 15-15v-568.05a15 15 0 0 0-15-15z"  horiz-adv-x="1024" />

    
    <glyph glyph-name="cart" unicode="&#59110;" d="M348.112 148.768a38.96 38.96 0 1 1 0-77.92 38.96 38.96 0 0 1 0 77.92z m345.04 0a38.96 38.96 0 1 1 0-77.92 38.96 38.96 0 0 1 0 77.92z m-423.776 555.2L192 703.712a16 16 0 0 1-15.952-16.048l0.048-16a16 16 0 0 1 16.048-15.952l48.544 0.144 50.864-472.32a16 16 0 0 1 15.904-14.272h408.576a16 16 0 0 1 16 16v16a16 16 0 0 1-16 16h-379.84l-3.808 35.504 401.152-0.016a16 16 0 0 1 15.472 11.92l82.144 310.944a16 16 0 0 1-15.472 20.096H295.44l-10.112 93.936a16 16 0 0 1-14.08 14.192l-1.872 0.096z m31.248-156.24h473.504l-65.232-246.96-381.68 0.016-26.592 246.944z"  horiz-adv-x="1024" />

    
    <glyph glyph-name="connectdevice" unicode="&#59111;" d="M566.4 467.024a13.92 13.92 0 0 0 8.752-3.6 752.32 752.32 0 0 0 23.52-25.712c4.384-5.056 7.792-9.28 9.36-11.76a140.912 140.912 0 0 0-19.456-174.928l-156.096-156.096a140.864 140.864 0 0 0-199.216 199.2l107.296 107.312a16 16 0 0 0 22.624 0l11.328-11.312a16 16 0 0 0 0-22.624L267.2 260.208a92.864 92.864 0 0 1 131.344-131.344l156.096 156.096a92.912 92.912 0 0 1 12.848 115.296 120.832 120.832 0 0 1-7.648 9.008c-5.36 5.984-12.624 13.824-18.96 20.48-1.808 1.92-2.976 5.104-2.944 8.96 0.032 3.632 1.168 7.968 2.592 9.408l16.208 16.208c1.44 1.44 5.664 2.912 9.68 2.704z m35.456 195.712A140.864 140.864 0 0 0 801.072 463.52l-84.848-84.848-12.88-12.88-2.192-2.192a24 24 0 0 0-15.216-6.496c-3.504-0.096-6.48 1.408-11.2 4.8-3.152 2.256-6.976 6.08-11.488 11.472-3.008 4.08-3.984 8.256-2.912 12.528 1.36 5.44 2.832 7.52 4.16 8.912l1.104 1.104 7.552 7.568 93.984 93.968a92.864 92.864 0 0 1-131.344 131.344l-156.096-156.096a92.912 92.912 0 0 1-12.848-115.296c0.784-1.248 4.112-5.104 8.56-10.032 4.912-5.44 11.168-12.208 16.832-18.192 1.856-1.952 3.36-6.144 3.616-10 0.288-4.432-0.96-8.528-2.624-10.208l-13.824-13.808c-1.632-1.632-7.424-4.368-11.872-4.464-4.304-0.096-9.76 5.008-10.08 5.344-5.92 6.24-12.272 13.12-17.76 19.296-6.256 7.04-11.36 13.168-13.392 16.368a140.912 140.912 0 0 0 19.456 174.928z"  horiz-adv-x="1024" />

    
    <glyph glyph-name="like" unicode="&#59115;" d="M520 607.808l-9.552 9.552-4 3.888c-73.28 69.088-188.432 67.488-259.808-3.888-72.848-72.848-72.848-190.96 0-263.808l262.048-262.048a16 16 0 0 1 22.624 0l262.048 262.048c72.848 72.848 72.848 190.96 0 263.808-72.848 72.848-190.96 72.848-263.808 0l-9.552-9.552z m-46.736-21.232l3.488-3.408 43.248-43.232 43.488 43.488a138.544 138.544 0 0 0 195.936 0l3.184-3.296a138.544 138.544 0 0 0-3.2-192.64L520 148.08 280.576 387.488a138.544 138.544 0 0 0 189.568 201.92l3.12-2.832z"  horiz-adv-x="1040" />

    
    <glyph glyph-name="mark" unicode="&#59116;" d="M630.048 508.24l191.712-27.872c12.88-1.904 24.272-10.128 29.056-23.84 3.424-11.744 0.16-24.16-8.528-32.768l-0.144-0.16-140.4-137.12 32.528-190.208c2.304-13.04-3.488-25.328-14.192-32.72-10.96-7.424-26.784-8.16-38.464-2.224l-167.632 88.4-167.28-88.384c-11.84-6.128-27.36-5.456-37.6 1.568-10.336 6.496-17.968 18-15.264 33.328l32.64 190.32-140.544 137.2c-8.912 8.848-12.448 21.968-8.048 33.744 4.416 12.56 15.616 20.832 28.608 22.784l191.856 27.952 83.488 169.648c6.08 12.08 18.928 19.264 32.32 19.264 13.6 0 26.768-7.2 32.496-19.456l83.392-169.44z m-6.992-47.488a46.832 46.832 0 0 0-35.84 25.792l-73.008 148.4-73.184-148.688a47.536 47.536 0 0 0-35.408-25.456l-164.368-23.968 119.04-116.192c11.2-10.784 16.24-26.384 13.6-41.6l-28.096-163.904 146.416 77.376a47.648 47.648 0 0 0 43.84-0.16l146.288-77.12-28 163.68c-2.624 15.2 2.432 30.72 13.488 41.52l119.232 116.48-164 23.84z"  horiz-adv-x="1024" />

    
    <glyph glyph-name="eye" unicode="&#58882;" d="M941.677 504.29c9.338 14.006 6.225 32.681-6.225 43.575-14.006 10.894-32.681 7.781-43.575-6.225-1.557-1.556-174.3-205.426-379.728-205.426-199.2 0-379.727 205.426-381.283 206.982-10.895 12.45-31.125 14.006-43.576 3.113-12.45-10.894-14.006-31.125-3.113-43.576 3.113-4.668 40.463-46.687 99.6-93.375l-79.37-82.482c-12.45-12.45-10.893-32.681 1.557-43.575 3.113-6.225 10.894-9.338 18.676-9.338 7.78 0 15.562 3.113 21.787 9.338l85.594 88.706c40.463-28.013 88.707-54.47 141.62-73.144l-32.682-110.495c-4.668-17.118 4.67-34.237 21.788-38.906h9.337c14.006 0 26.457 9.338 29.569 23.344l32.681 110.495c24.9-4.669 51.357-7.782 77.813-7.782s52.913 3.113 77.814 7.782l32.68-108.939c3.114-14.006 17.12-23.343 29.57-23.343 3.113 0 6.225 0 7.782 1.556 17.118 4.67 26.456 21.787 21.788 38.906L649.099 300.42c52.914 18.676 101.157 45.132 141.62 73.144l84.038-87.15c6.225-6.225 14.006-9.338 21.787-9.338 7.781 0 15.563 3.113 21.787 9.337 12.45 12.451 12.45 31.125 1.557 43.576l-79.37 82.481c63.808 46.689 101.16 91.82 101.16 91.82z"  horiz-adv-x="1024" />

    
    <glyph glyph-name="EyeShow-1" unicode="&#58997;" d="M512 511.786667a170.666667 170.666667 0 1 0 0-341.333334 170.666667 170.666667 0 0 0 0 341.333334zM512 661.333333c196.864 0 366.762667-134.4 413.909333-322.730666a32 32 0 1 0-62.08-15.573334 362.794667 362.794667 0 0 1-703.701333-0.170666 32 32 0 0 0-62.08 15.488A426.794667 426.794667 0 0 0 512 661.333333z"  horiz-adv-x="1024" />

    
    <glyph glyph-name="github1" unicode="&#58880;" d="M476.45141792 5.687507630000027a69.19687271 69.19687271 0 0 0-69.43711281 68.71562004l-0.27500152 49.18046952c-136.46718979-29.68008041-165.25351524 57.88164139-165.25351524 57.88164138-22.32069968 56.67812347-54.47733879 71.74218178-54.4773388 71.74218178-44.50235366 30.47109604 3.37108612 29.85234261 3.37108612 29.85234261 49.21445847-3.43906403 75.14648438-50.55624962 75.14648437-50.55624962 43.74609947-74.97499465 114.76601601-53.30780983 142.72656441-40.7890606 4.40234184 31.70937538 17.12734222 53.34179878 31.15937234 65.61953545-108.95390511 12.38124847-223.47968101 54.47733879-223.47968102 242.39530563 0 53.54804993 19.15663718 97.29492188 50.55624962 131.65234566-5.08984566 12.38124847-21.87343597 62.2492218 4.74609375 129.79531288 0 0 41.20156288 13.17226409 134.91991997-50.28047561a470.65429688 470.65429688 0 0 0 122.77968406 16.50781631c41.64805413-0.17226218 83.64063263-5.60585976 122.84766198-16.50781631C745.43149185 774.34844399 786.56430435 761.17695236 786.56430435 761.17695236c26.68828011-67.58008003 9.90468979-117.44882584 4.81484413-129.79531288 31.43437386-34.32343483 50.48749924-78.10429573 50.48749924-131.65311814 0-188.39921951-114.76678848-229.87578392-223.96093369-242.01601981 17.57460593-15.23554802 33.25741768-45.05312919 33.25741769-90.82929612 0-65.65429688-0.24101257-92.44531631-0.24101258-92.44531631a69.23086166 69.23086166 0 0 0-69.36836242-68.75038147H476.45064544z"  horiz-adv-x="1024" />

    
    <glyph glyph-name="youxiang" unicode="&#59000;" d="M983.899806 110.614218V671.113777h0.180631l-0.180631 4.696419c-0.180632 5.238314-0.722526 10.476627-1.806315 15.714941-2.890104 25.469042-21.675781 44.977245-45.519139 47.686717H122.287529c-11.741048 0-23.482096-1.625684-34.861881-5.238314-30.346093-10.295996-50.757453-40.100194-50.576821-74.058917v-534.849885c-0.361263-21.314518 5.780208-42.087141 17.701887-59.789028l0.361263-0.722526 5.418946-3.973893c18.243782-21.856412 44.977245-34.319986 73.517022-34.500618H904.421944c37.751984 0 70.265655 27.094726 79.477862 66.291763l0.180631 0.541894c0.361263 5.96084 0.361263 11.741048-0.180631 17.701888zM390.16405 348.505909l55.453872-49.854295 43.893456-40.100194c5.418945-5.96084 13.005468-9.57347 21.133886-9.57347 7.947786 0 15.534309 3.431999 21.133886 9.57347l101.153642 91.941436 272.753572-263.721997H126.622685L390.16405 348.505909z m120.119951-30.346092L111.449638 679.96472H115.604163c214.409596 0.903158 703.559711 2.890104 793.875463 0.361263l-399.195625-362.166166z m165.458458 69.72376l251.619686 227.956959v-474.518963L675.742459 387.883577z m-328.568707-0.180631L93.205856 135.721997V617.104957l253.967896-229.402011z"  horiz-adv-x="1024" />

    
    <glyph glyph-name="alipay" unicode="&#58926;" d="M230 319q-9-7-17-17.5T202 277q-5-18 0-39.5t22-39.5q23-22 49.5-30t42.5-9q39-2 77.5 13t69.5 38q13 8 31.5 25.5T534 280q-45 24-99 43t-114 18q-60-4-91-22z m753-135q41 96 41 200-6 217-150.5 361.5T512 896Q295 890 150.5 745.5T0 384q6-217 150.5-361.5T512-128q129 1 236.5 58T927 84L604 243q-32-37-77.5-69T427 125q-33-10-64-13t-62.5 3.5Q269 122 246 135t-37 28q-14 15-26 38l1-3-3 5q-2 5-5 14t-3 18q-1 7 0 13-1 12 1 24 3 16 11 33t24 33q39 35 80.5 43.5T358 389q40-1 97.5-15T570 340q15 33 25.5 65t16.5 56H305v33h158v67H272v33h191v66q-1 7 2.5 12t13.5 5h75v-83h207v-33H554v-67h166q0-3-15-57.5T651 310q92-33 189.5-70.5T983 184z"  horiz-adv-x="1024" />

    
    <glyph glyph-name="github" unicode="&#59024;" d="M512.465 797.256c-236.05 2.401-429.41-187.034-431.998-423.242 0.894-183.912 120.176-346.283 295.332-402.018 21.6-3.93 29.451 9.04 29.451 20.436v71.916c-120.17-25.545-145.7 56.59-145.7 56.59a112.364 112.364 0 0 1-47.914 62.089c-39.272 25.937 3.141 25.545 3.141 25.545a90.702 90.702 0 0 0 65.978-43.624c25.358-43.993 81.26-59.548 125.678-34.976a91.569 91.569 0 0 0 27.487 56.59c-95.825 10.615-196.36 46.768-196.36 209.067a163.13 163.13 0 0 0 43.591 114.358 148.652 148.652 0 0 0 4.32 111.609c15.896 35.223 36.525 11.397 117.815-43.229a419.24 419.24 0 0 0 216.002 0c82.471 54.626 117.82 43.229 117.82 43.229a148.657 148.657 0 0 0 4.32-111.61 163.145 163.145 0 0 0 45.945-113.57c0-162.695-101.321-198.458-196.36-209.067a98.273 98.273 0 0 0 29.452-78.594v-115.933c0-13.752 7.856-24.756 29.457-20.43 174.63 56.071 293.466 218.106 294.545 401.622C941.878 610.222 748.52 799.657 512.465 797.256"  horiz-adv-x="1024" />

    
    <glyph glyph-name="password" unicode="&#58886;" d="M780.8 541.42H665.6v42.89c0 72.31-19.85 193.3-153.6 193.3-138.87 0-153.6-135.05-153.6-193.3v-42.89H243.2v42.89C243.2 773.75 348.79 896 512 896s268.8-122.25 268.8-311.69v-42.89z m-192-314.84c0 43.52-34.58 78.65-76.8 78.65s-76.8-35.13-76.8-78.65c0-29.46 15.4-54.47 38.44-67.82v-89.64c0-21.74 17.25-39.7 38.4-39.7s38.4 17.96 38.4 39.7v89.64c23 13.35 38.36 38.36 38.36 67.82zM896 384v-393.61c0-65.26-51.87-118.39-115.2-118.39H243.2c-63.291 0-115.2 53.13-115.2 118.39V384c0 65.22 51.87 118.39 115.2 118.39h537.6c63.33 0 115.2-53.17 115.2-118.39z"  horiz-adv-x="1024" />

    
    <glyph glyph-name="user" unicode="&#58918;" d="M984.615385 49.230769v-43.323077c0-51.2-43.323077-94.523077-94.523077-94.523077H133.907692C82.707692-88.615385 39.384615-45.292308 39.384615 5.907692V49.230769c0 114.215385 133.907692 185.107692 259.938462 240.246154l11.815385 5.907692c9.846154 3.938462 19.692308 3.938462 29.538461-1.96923 51.2-33.476923 108.307692-51.2 169.353846-51.2s120.123077 19.692308 169.353846 51.2c9.846154 5.907692 19.692308 5.907692 29.538462 1.96923l11.815385-5.907692C850.707692 234.338462 984.615385 165.415385 984.615385 49.230769zM512 856.615385c129.969231 0 234.338462-116.184615 234.338462-259.938462S641.969231 336.738462 512 336.738462s-234.338462 116.184615-234.338462 259.938461S382.030769 856.615385 512 856.615385z"  horiz-adv-x="1024" />

    
    <glyph glyph-name="icon" unicode="&#58881;" d="M871.74494466 258.77214353c-16.50920713 95.75267959-85.84589619 158.4869458-85.8458962 158.4869458 9.90408516 86.94225352-26.41598965 102.35870068-26.41598964 102.35870068C751.8355426 788.60741521 520.12654182 783.8973082800001 515.26173948 783.76959529c-4.87109707 0.12771299-236.61157763 4.83781992-244.22401582-264.15360352 0 0-36.32097481-15.41554805-26.41509053-102.35870068 0 0-69.34118643-62.73426622-85.84859443-158.4869458 0 0-8.8185208-161.79130547 79.24167422-19.8135668 0 0 19.81446592-53.91574541 56.1336416-102.3533042 0 0-64.94856504-22.02696562-59.43260478-79.2461707 0 0-2.21249971-63.82522617 138.67787636-59.43620215 0 0 99.05434102 7.69608193 128.77379121 49.52672051l12.97820039 0 0.23114355 0 12.97730128 0c29.71495283-41.8324377 128.77199297-49.52672051 128.77199297-49.52672051 140.85529981-4.38902402 138.67517813 59.43620215 138.67517812 59.43620215 5.4826831 57.21920508-59.43170566 79.2461707-59.43170566 79.2461707 36.32007481 48.43576055 56.12824511 102.3533042 56.12824511 102.3533042C880.52659007 96.98083806 871.74494466 258.77214353 871.74494466 258.77214353L871.74494466 258.77214353z"  horiz-adv-x="1024" />

    
    <glyph glyph-name="icon1" unicode="&#58896;" d="M670.10509978 521.7254593499999c10.295484 0 20.419052-0.780783 30.601972-1.898233C673.29372178 647.48569835 536.85118978 742.3093433500001 381.04872778 742.3093433500001c-174.151365 0-316.802296-118.652354-316.802296-269.418103 0-86.992283 47.438429-158.431336 126.767172-213.925231l-31.665187-95.272877 110.765733 55.494918c39.60809-7.776104 71.383794-15.833617 110.935602-15.833617 9.956769 0 19.804045 0.447185 29.538757 1.172709-6.154163 21.204951-9.788947 43.35953-9.788947 66.462714C400.85277278 409.39611435 519.67601878 521.7254593499999 670.10509978 521.7254593499999L670.10509978 521.7254593499999zM499.81773878 607.60029235c23.943318 0 39.663348-15.72003 39.663348-39.552831 0-23.717168-15.717983-39.60809-39.663348-39.60809-23.667026 0-47.495734 15.889899-47.495734 39.60809C452.32200478 591.93552135 476.09545478 607.60029235 499.81773878 607.60029235L499.81773878 607.60029235zM278.11538078 528.44039435c-23.77652 0-47.721885 15.889899-47.721885 39.60809 0 23.832801 23.944342 39.552831 47.721885 39.552831 23.772426 0 39.552831-15.664771 39.552831-39.552831C317.66923578 544.3302933499999 301.88883078 528.44039435 278.11538078 528.44039435L278.11538078 528.44039435zM959.32827078 274.79553435c0 126.655631-126.766149 229.870388-269.14181 229.870388-150.761656 0-269.419126-103.271038-269.419126-229.870388 0-126.991276 118.712729-229.866295 269.419126-229.866295 31.55467 0 63.383586 7.887644 95.05082 15.8285l86.87665-47.659463-23.832801 79.209016C911.88779478 140.08852935000004 959.32827078 203.35750535 959.32827078 274.79553435L959.32827078 274.79553435zM602.80532078 314.45990535c-15.717983 0-31.66314 15.663748-31.66314 31.665187 0 15.775288 15.945157 31.659047 31.66314 31.659047 24.056905 0 39.665395-15.884782 39.665395-31.659047C642.46969278 330.12365335000004 626.86120278 314.45990535 602.80532078 314.45990535L602.80532078 314.45990535zM777.06720378 314.45990535c-15.608489 0-31.492248 15.663748-31.492248 31.665187 0 15.775288 15.830547 31.659047 31.492248 31.659047 23.832801 0 39.664372-15.884782 39.664372-31.659047C816.73055178 330.12365335000004 800.90000478 314.45990535 777.06720378 314.45990535L777.06720378 314.45990535z"  horiz-adv-x="1024" />

    
    <glyph glyph-name="checktriangle" unicode="&#59088;" d="M64-64l832 0c35.392 0 64 28.608 64 64L960 832 64-64zM674.88 21.76C667.136 9.344 653.632 0 638.976 0c-0.64 0-1.344 0-1.344 0-14.656 0-27.776 7.36-36.224 18.496L457.28 199.68c-14.848 19.648-11.008 47.808 8.64 62.784 19.776 14.72 47.616 11.008 62.528-8.64l105.024-129.152 189.248 303.808c12.992 20.864 40.512 27.264 61.376 14.272 20.992-12.992 27.264-40.512 14.272-61.44L674.88 21.76z"  horiz-adv-x="1024" />

    
    <glyph glyph-name="tengxunweibo" unicode="&#59026;" d="M759.291 626.577s25.741-70.787 86.874-123.879c61.134-53.090 115.833-65.962 119.053-64.353 1.609 0 20.914 14.478-3.219 22.523-24.132 8.043-75.615 37.003-104.571 62.742-57.917 51.483-72.396 111.006-70.787 111.006 8.043 4.827 19.305 12.87 19.305 33.786s-12.87 48.265-46.657 48.265c-33.786 0-45.045-27.348-45.045-48.265 0-22.523 24.132-41.828 45.045-41.828zM897.646 639.445c8.043 38.61 3.219 64.353-16.090 101.356-22.523 41.828-104.571 96.527-191.446 48.265-86.874-49.872-80.441-162.49-32.174-212.361 46.657-49.872 114.225-45.045 114.225-45.045 4.827 0 8.043 3.219 8.043 9.653v4.827c0 4.827-4.827 9.653-9.653 9.653 0 0-24.132 0-49.872 9.653-11.263 4.827-57.917 27.348-69.178 82.049-11.263 54.7 19.305 101.356 54.7 120.659 49.872 27.348 102.962 22.523 148.009-28.959 25.741-30.567 25.741-85.266 16.090-109.398-11.263-25.741-19.305-30.567-19.305-30.567-3.219-3.219-3.219-9.653 0-12.87l6.434-4.827c3.219-3.219 9.653-3.219 12.87 1.609-1.609-3.219 19.305 17.696 27.348 56.308zM239.649 464.089c1.609-1.609-86.874-83.658-127.095-223.622-40.22-138.356-24.132-215.58-19.305-239.712s35.394-30.567 40.22 0c3.219 30.567-11.263 123.879 20.914 226.841 37.003 117.441 111.006 202.708 114.225 199.489 14.478-11.263 28.959-14.478 48.265-14.478 46.657 0 80.441 37.003 80.441 82.049 0 46.657-35.394 80.441-80.441 80.441-46.657 0-82.049-33.786-82.049-80.441-1.609-11.263 0-20.914 4.827-30.567zM241.26 277.467c-12.87-27.348 38.61-33.786 70.787-33.786 170.532 0 239.712 143.184 244.537 231.666 6.434 107.79-72.396 259.017-241.321 259.017s-250.973-133.531-250.973-259.017c0-78.831 35.394-120.659 61.134-106.181 24.132 12.87-14.478 59.525-14.478 106.181 0 78.831 46.657 213.969 201.099 213.969 151.227 0 204.317-131.922 199.489-213.969-4.827-82.049-83.658-186.621-199.489-186.621-6.434 0-59.525 16.090-70.787-11.263z"  horiz-adv-x="1024" />

    
    <glyph glyph-name="weixin" unicode="&#59028;" d="M958.828 281.454c0 120.659-111.006 218.796-250.973 223.622-16.090 141.573-152.836 252.582-318.542 252.582-176.967 0-320.15-123.879-320.15-278.321 0-91.7 51.483-172.142 130.311-223.622 9.653-4.827-28.959-85.266-19.305-90.094 16.090-9.653 80.441 59.525 98.137 53.090 35.394-11.263 72.396-17.696 112.617-17.696 19.305 0 38.61 1.609 57.917 4.827 37.003-85.266 133.531-146.399 246.146-146.399 30.567 0 61.134 4.827 88.485 12.87 8.043 3.219 70.787-51.483 78.831-48.265 14.478 4.827-25.741 69.178-12.87 77.222 65.962 40.22 109.398 106.181 109.398 180.186zM598.457 337.764c-14.478 0-27.348 12.87-27.348 27.348s11.263 27.348 27.348 27.348c14.478 0 27.348-12.87 27.348-27.348 0-14.478-11.263-27.348-27.348-27.348zM432.75 281.454c0-6.434 0-14.478 1.609-22.523-14.478-1.609-28.959-3.219-43.437-3.219-37.003 0-72.396 6.434-104.571 17.696-3.219 1.609-14.478 4.827-20.914 0-14.478-9.653-32.174-32.174-32.174-32.174s6.434 16.090 9.653 38.61c1.609 9.653-14.478 17.696-17.696 19.305-59.525 40.22-98.137 109.398-98.137 178.578 0 123.879 117.441 223.622 263.841 223.622 136.749 0 247.756-86.874 262.234-199.489-125.486-17.696-220.405-109.398-220.405-220.405zM765.771 337.764c-14.478 0-27.348 12.87-27.348 27.348s11.263 27.348 27.348 27.348c14.478 0 27.348-12.87 27.348-27.348 0-14.478-11.263-27.348-27.348-27.348zM501.93 535.644c22.523 0 41.828 19.305 41.828 41.828s-19.305 41.828-41.828 41.828c-22.523 0-41.828-19.305-41.828-41.828 0-24.132 19.305-41.828 41.828-41.828zM279.915 535.644c22.523 0 41.828 19.305 41.828 41.828s-19.305 41.828-41.828 41.828c-22.523 0-41.828-19.305-41.828-41.828 0-24.132 17.696-41.828 41.828-41.828z"  horiz-adv-x="1024" />

    
    <glyph glyph-name="zhifubao" unicode="&#59029;" d="M600.958 298.38s22.523 32.174 45.045 96.527c24.132 64.353 27.348 99.747 27.348 99.747l-183.403 1.609v62.742l222.015 1.609v45.045h-222.015v101.356h-109.398v-99.747h-210.752v-45.045l207.534 1.609v-67.569h-165.705v-35.394h342.674s-3.219-28.959-16.090-64.353c-14.478-35.394-27.348-65.962-27.348-65.962s-160.88 56.308-246.146 56.308c-85.266 0-188.23-35.394-197.884-133.531-9.653-98.137 48.265-152.836 130.311-172.142 80.441-19.305 156.052 0 222.015 32.174 65.962 32.174 130.311 104.571 130.311 104.571l341.065-165.705s20.914 32.174 37.003 62.742c16.090 30.567 28.959 64.353 28.959 64.353l-355.546 119.053zM250.24 135.891c-120.659 0-144.794 59.525-144.794 101.356s25.741 88.485 127.095 94.919c101.356 6.434 239.712-72.396 239.712-72.396s-101.356-123.879-222.015-123.879z"  horiz-adv-x="1024" />

    
    <glyph glyph-name="qqkongjian" unicode="&#59031;" d="M510.391 100.851s-259.017-159.27-275.104-146.399c-16.090 12.87 53.090 308.889 53.090 308.889s-231.666 194.663-222.015 218.796c9.653 24.132 307.279 45.045 307.279 45.045s111.006 279.93 136.749 279.93c27.348 0 136.749-279.93 136.749-279.93s299.236-20.914 307.279-45.045c8.043-24.132-222.015-218.796-222.015-218.796s3.219-19.305 6.434-32.174c0-1.609-107.79-3.219-196.274 0-46.657 1.609-102.962 11.263-102.962 11.263l255.797 183.403s-91.7 16.090-186.621 20.914c-102.962 3.219-207.534-6.434-222.015-9.653-9.653-1.609 65.962-1.609 152.836-9.653 61.134-4.827 139.964-20.914 139.964-20.914l-255.797-191.446s51.483-9.653 233.277-4.827 242.926 17.696 242.926 17.696-12.87-6.434-25.741-9.653c-14.478-3.219-28.959-8.043-28.959-8.043 19.305-85.266 53.090-239.712 40.22-252.582-19.305-20.914-275.104 143.184-275.104 143.184z"  horiz-adv-x="1024" />

    
    <glyph glyph-name="xinlangweibo" unicode="&#59059;" d="M712.779 411.727c0 8.579 75.506 78.938 0 123.555s-214.506-24.025-209.359-15.443c60.062 104.679-25.741 137.283-68.643 137.283-102.962 0-374.098-229.952-374.098-375.813s180.186-264.273 403.271-264.273 401.554 118.406 401.554 264.273c0 123.555-152.73 123.555-152.73 130.419zM474.246 97.689c-140.717-20.592-267.705 39.47-281.43 133.852s90.95 185.333 233.382 205.926c142.433 20.592 267.705-39.47 281.43-133.852s-90.95-185.333-233.382-205.926zM800.297 461.494h17.163c10.297 0 20.592 8.579 22.308 18.876 0 0 18.876 77.222-27.457 120.125s-108.113 27.457-108.113 27.457c-10.297-1.716-18.876-12.014-18.876-22.308v-6.863c0-10.297 8.579-18.876 18.876-17.163 0 0 51.483 6.863 77.222-24.025s5.149-78.938 5.149-78.938c-3.434-10.297 3.434-17.163 13.728-17.163zM899.826 688.011c-85.804 82.37-212.788 70.359-212.788 70.359-15.443 0-27.457-13.728-27.457-29.171v-13.728c0-15.443 12.014-27.457 29.171-27.457 0 0 121.84 13.728 173.323-61.778s29.171-169.888 29.171-169.888c-1.716-15.443 8.579-27.457 24.025-27.457h12.014c15.443 0 30.89 12.014 32.605 27.457-1.716 0 25.741 147.58-60.062 231.666zM398.74 385.986c-84.086-17.163-142.433-87.519-128.703-159.594s94.384-116.691 178.469-99.53 142.433 87.519 128.703 159.594-94.384 116.691-178.469 99.53zM391.875 197.221c-25.741-12.014-54.915-5.149-63.493 13.728-8.579 20.592 5.149 46.333 30.89 58.347s54.915 6.863 63.493-13.728c8.579-20.592-5.149-46.333-30.89-58.347zM451.938 257.283c-15.443 0-27.457 12.014-25.741 25.741 0 13.728 12.014 25.741 25.741 25.741s25.741-10.297 25.741-25.741c0-13.728-12.014-25.741-25.741-25.741z"  horiz-adv-x="1024" />

    
    <glyph glyph-name="addto" unicode="&#59032;" d="M544 416h112a16 16 0 0 0 16-16v-16a16 16 0 0 0-16-16h-112v-112a16 16 0 0 0-16-16h-16a16 16 0 0 0-16 16v112h-112a16 16 0 0 0-16 16v16a16 16 0 0 0 16 16h112v112a16 16 0 0 0 16 16h16a16 16 0 0 0 16-16v-112z m-32-320c159.056 0 288 128.944 288 288s-128.944 288-288 288-288-128.944-288-288 128.944-288 288-288z m0-48c-185.568 0-336 150.432-336 336s150.432 336 336 336 336-150.432 336-336-150.432-336-336-336z"  horiz-adv-x="1024" />

    
    <glyph glyph-name="settings" unicode="&#59035;" d="M396.72 575.408a141.184 141.184 0 0 0-99.824-15.92 277.648 277.648 0 0 1-45.344-74.576 141.216 141.216 0 0 0 37.52-95.952 141.248 141.248 0 0 0-41.728-100.32 274.4 274.4 0 0 1 49.952-86.224 141.264 141.264 0 0 0 107.168-14.176 141.216 141.216 0 0 0 63.984-79.296 274.72 274.72 0 0 1 86.816 1.92 141.248 141.248 0 0 0 66.016 86.304 141.216 141.216 0 0 0 101.856 15.488 277.648 277.648 0 0 1 41.92 76.544 141.184 141.184 0 0 0-36.128 94.4c0 34.912 12.768 67.68 34.816 92.96a274.736 274.736 0 0 1-38.192 70.032 141.264 141.264 0 0 0-105.792 14.56 141.312 141.312 0 0 0-67.168 90.912 274.4 274.4 0 0 1-92.784-0.016 141.152 141.152 0 0 0-63.088-76.64z m22.56 116.656c57.312 16 119.024 16.224 178.016-1.216a93.44 93.44 0 0 1 142.288-86.736 322.64 322.64 0 0 0 79.104-142.656 93.328 93.328 0 0 1-41.76-77.84 93.36 93.36 0 0 1 42.88-78.592 322.832 322.832 0 0 0-34.208-85.232 323.392 323.392 0 0 0-47.968-63.568 93.392 93.392 0 0 1-92.352-0.64 93.408 93.408 0 0 1-46.688-83.616 322.704 322.704 0 0 0-171.424-3.84 93.376 93.376 0 0 1-46.704 78.544 93.408 93.408 0 0 1-95.184-1.008A322.432 322.432 0 0 0 192 306.72a93.408 93.408 0 0 1 49.072 82.24c0 34.128-18.304 64-45.632 80.288a323.392 323.392 0 0 0 31.088 73.328 322.832 322.832 0 0 0 56.704 72.256 93.36 93.36 0 0 1 89.488 2.144 93.328 93.328 0 0 1 46.56 75.088z m92.208-385.28a68.864 68.864 0 1 1 0 137.76 68.864 68.864 0 0 1 0-137.76z m0-48a116.864 116.864 0 1 0 0 233.76 116.864 116.864 0 0 0 0-233.76z"  horiz-adv-x="1024" />

    
    <glyph glyph-name="down" unicode="&#59037;" d="M830.24 555.312l11.328-11.312a16 16 0 0 0 0-22.624L530.448 210.24a16 16 0 0 0-22.64 0L196.688 521.376a16 16 0 0 0 0 22.624l11.312 11.312a16 16 0 0 0 22.624 0l288.496-288.496 288.512 288.496a16 16 0 0 0 22.624 0z"  horiz-adv-x="1024" />

    
    <glyph glyph-name="prevent" unicode="&#59041;" d="M800 376C800 530.64 674.64 656 520 656S240 530.64 240 376 365.36 96 520 96 800 221.36 800 376z m48 0C848 194.848 701.152 48 520 48S192 194.848 192 376 338.848 704 520 704 848 557.152 848 376z m-440 16h240a16 16 0 0 0 16-16v-16a16 16 0 0 0-16-16h-240a16 16 0 0 0-16 16v16a16 16 0 0 0 16 16z"  horiz-adv-x="1024" />

    
    <glyph glyph-name="information" unicode="&#59043;" d="M536 416v-192a16 16 0 0 0-16-16h-16a16 16 0 0 0-16 16V416a16 16 0 0 0 16 16h16a16 16 0 0 0 16-16z m-32 128h16a16 16 0 0 0 16-16v-32a16 16 0 0 0-16-16h-16a16 16 0 0 0-16 16v32a16 16 0 0 0 16 16z m8-448c159.056 0 288 128.944 288 288s-128.944 288-288 288-288-128.944-288-288 128.944-288 288-288z m0-48c-185.568 0-336 150.432-336 336s150.432 336 336 336 336-150.432 336-336-150.432-336-336-336z"  horiz-adv-x="1024" />

    
    <glyph glyph-name="close" unicode="&#59044;" d="M507.168 422.768L716.48 632.064a16 16 0 0 0 22.624 0l11.312-11.312a16 16 0 0 0 0-22.624L541.12 388.832 750.4 179.52a16 16 0 0 0 0-22.624l-11.312-11.312a16 16 0 0 0-22.624 0L507.168 354.88 297.872 145.6a16 16 0 0 0-22.624 0l-11.312 11.312a16 16 0 0 0 0 22.624l209.296 209.312-209.296 209.296a16 16 0 0 0 0 22.624l11.312 11.312a16 16 0 0 0 22.624 0l209.296-209.296z"  horiz-adv-x="1024" />

    
    <glyph glyph-name="increase" unicode="&#59046;" d="M488 408V704a16 16 0 0 0 16 16h16a16 16 0 0 0 16-16v-296H832a16 16 0 0 0 16-16v-16a16 16 0 0 0-16-16H536V64a16 16 0 0 0-16-16h-16a16 16 0 0 0-16 16V360H192a16 16 0 0 0-16 16v16a16 16 0 0 0 16 16h296z"  horiz-adv-x="1024" />

    
    <glyph glyph-name="upward" unicode="&#59048;" d="M830.24 210.24l11.328 11.312a16 16 0 0 1 0 22.64L530.448 555.312a16 16 0 0 1-22.64 0L196.688 244.192a16 16 0 0 1 0-22.64l11.312-11.312a16 16 0 0 1 22.624 0l288.496 288.512L807.632 210.24a16 16 0 0 1 22.624 0z"  horiz-adv-x="1024" />

    
    <glyph glyph-name="history" unicode="&#59050;" d="M512 96c159.056 0 288 128.944 288 288s-128.944 288-288 288-288-128.944-288-288 128.944-288 288-288z m0-48c-185.568 0-336 150.432-336 336s150.432 336 336 336 336-150.432 336-336-150.432-336-336-336z m16 320V528a16 16 0 0 0 16 16h16a16 16 0 0 0 16-16v-192a16 16 0 0 0-16-16H384a16 16 0 0 0-16 16v16a16 16 0 0 0 16 16h144z"  horiz-adv-x="1024" />

    
    <glyph glyph-name="next" unicode="&#59052;" d="M340.688 65.76l11.312-11.328a16 16 0 0 1 22.624 0L685.76 365.552a16 16 0 0 1 0 22.64L374.624 699.312a16 16 0 0 1-22.624 0l-11.312-11.312a16 16 0 0 1 0-22.624l288.496-288.496-288.496-288.512a16 16 0 0 1 0-22.624z"  horiz-adv-x="1024" />

    
    <glyph glyph-name="eye_protection" unicode="&#59054;" d="M611.232 428.096a35.92 35.92 0 0 0-35.36-29.376 35.888 35.888 0 0 0-35.936 35.84 35.888 35.888 0 0 0 35.904 35.84 105.824 105.824 0 0 1-60.96 19.2c-58.608 0-106.048-47.312-106.048-105.6s47.44-105.6 106.032-105.6 106.032 47.312 106.032 105.6c0 15.744-3.456 30.672-9.664 44.096zM516.64 176c83.456 0 157.856 35.328 217.856 94.864 43.648 43.312 74.784 98.144 74.784 113.136 0 15.504-30.432 70.16-73.536 113.28C676.288 556.736 601.728 592 516.64 592c-84.576 0-158.944-35.968-218.88-96.64C255.136 452.192 224 396.832 224 384c0-12.32 31.856-67.872 75.008-111.2C359.488 212.016 433.696 176 516.64 176z m0-48C299.744 128 176 338.464 176 384s120.064 256 340.64 256c220.592 0 340.64-204.768 340.64-256s-123.744-256-340.64-256z m-1.76 102.4c-85.088 0-154.048 68.768-154.048 153.6s68.96 153.6 154.032 153.6c85.072 0 154.032-68.768 154.032-153.6s-68.96-153.6-154.032-153.6z"  horiz-adv-x="1024" />

    
    <glyph glyph-name="voice" unicode="&#59055;" d="M519.312 504h16a16 16 0 0 0 16-16v-168.352a16 16 0 0 0-16-16h-16a16 16 0 0 0-16 16V488a16 16 0 0 0 16 16zM408 459.472h16a16 16 0 0 0 16-16v-79.296a16 16 0 0 0-16-16h-16a16 16 0 0 0-16 16v79.296a16 16 0 0 0 16 16z m222.608 0h16a16 16 0 0 0 16-16v-79.296a16 16 0 0 0-16-16h-16a16 16 0 0 0-16 16v79.296a16 16 0 0 0 16 16zM418.512 176.72l0.032 0.08A311.04 311.04 0 0 1 520 160C675.2 160 800 271.68 800 408S675.2 656 520 656 240 544.32 240 408c0-70.592 33.52-136.56 91.568-183.392l-0.08-0.096 3.328-92.8 83.696 45.008z m-134 25.184C225.84 256.464 192 329.696 192 408 192 572.112 339.408 704 520 704S848 572.112 848 408 700.592 112 520 112c-32.992 0-65.328 4.4-96.224 12.944l-109.792-59.76a16 16 0 0 0-23.632 13.312l-5.84 123.408z"  horiz-adv-x="1024" />

    
    <glyph glyph-name="nickname" unicode="&#59056;" d="M432.56 368.832a150.192 150.192 0 0 0-73.6 129.248V553.76a150.256 150.256 0 0 0 300.512 0v-55.664a150.176 150.176 0 0 0-72.048-128.32A344.432 344.432 0 0 0 824.736 177.6c2.56-5.552 7.232-11.2 7.232-16.928v-4.784H832V66.08a16 16 0 0 0-16-16H208a16 16 0 0 0-16 16V146.096l0.32 0.032c0 5.28-0.032 10.656 0.336 16.096 0.368 5.408 4.416 10.608 6.8 15.792a344.432 344.432 0 0 0 233.104 190.816zM240 151.072v-52.992h544v53.008a296.16 296.16 0 0 1-544 0zM509.216 656a102.256 102.256 0 0 1-102.256-102.256v-55.664a102.256 102.256 0 0 1 204.512 0V553.76A102.256 102.256 0 0 1 509.232 656z"  horiz-adv-x="1024" />

    
    <glyph glyph-name="problem" unicode="&#59057;" d="M535.088 321.056V280a16 16 0 0 0-16-16h-16a16 16 0 0 0-16 16V352a16 16 0 0 0 16 16h16.496a72 72 0 1 1-71.216 85.392 16 16 0 0 0-15.792-13.392h-18.64a13.92 13.92 0 0 0-13.824 15.744 120.016 120.016 0 0 0 238.976-15.744 120.016 120.016 0 0 0-104-118.944z m-32-137.056a16 16 0 0 0-16 16v16a16 16 0 0 0 16 16h16a16 16 0 0 0 16-16v-16a16 16 0 0 0-16-16h-16zM512 96c159.056 0 288 128.944 288 288s-128.944 288-288 288-288-128.944-288-288 128.944-288 288-288z m0-48c-185.568 0-336 150.432-336 336s150.432 336 336 336 336-150.432 336-336-150.432-336-336-336z"  horiz-adv-x="1024" />

    
    <glyph glyph-name="search" unicode="&#59105;" d="M685.6 235.664l155.152-155.168a16 16 0 0 0 0-22.624l-11.312-11.328a16 16 0 0 0-22.624 0l-158.528 158.544a289.792 289.792 0 0 0-165.152-51.36C322.336 153.744 192 284.096 192 444.88 192 605.664 322.336 736 483.136 736c160.784 0 291.12-130.336 291.12-291.136 0-82.112-33.984-156.272-88.672-209.2z m-202.464-33.92c134.272 0 243.12 108.848 243.12 243.12C726.256 579.152 617.408 688 483.136 688 348.848 688 240 579.152 240 444.864c0-134.272 108.848-243.12 243.136-243.12z"  horiz-adv-x="1024" />

    


  </font>
</defs>
</svg>
