<?xml version="1.0" standalone="no"?>
<!DOCTYPE svg PUBLIC "-//W3C//DTD SVG 1.1//EN" "http://www.w3.org/Graphics/SVG/1.1/DTD/svg11.dtd" >
<!--
2013-9-30: Created.
-->
<svg>
<metadata>
Created by iconfont
</metadata>
<defs>

<font id="iconfont" horiz-adv-x="1024" >
  <font-face
    font-family="iconfont"
    font-weight="500"
    font-stretch="normal"
    units-per-em="1024"
    ascent="896"
    descent="-128"
  />
    <missing-glyph />
    
    <glyph glyph-name="x-tags" unicode="&#58891;" d="M929.882 146.899l-58.76 88.335 48.76 62.795c12.288 15.812 17.709 35.569 15.179 55.567s-12.649 37.798-28.461 50.086l-385.084 298.978c-28.853 22.408-80.143 39.936-117.097 39.936l-260.668-0.693c-20.45-0.060-38.701-8.463-50.025-23.070-11.354-14.607-14.999-34.394-9.999-54.212l63.91-252.717c8.975-35.569 38.731-81.016 67.704-103.544l2.108-1.626 298.767-440.35c11.264-16.595 28.371-27.799 48.188-31.593 4.819-0.934 9.638-1.385 14.426-1.385 14.908 0 29.485 4.397 42.044 12.951l288.467 195.765c34.244 23.281 43.46 70.264 20.54 104.779zM176.851 419.283l-63.91 252.717c-2.771 10.933-1.144 20.992 4.548 28.341s15.059 11.415 26.353 11.445l260.909 0.663c29.847 0 74.842-15.39 98.304-33.611l385.054-298.978c9.457-7.349 15.541-18.040 17.047-30.057 1.506-11.987-1.717-23.853-9.065-33.31l-213.835-275.366c-14.728-18.944-44.303-22.799-63.398-8.011l-387.945 301.568c-22.769 19.215-47.044 56.862-54.061 84.6zM892.386 67.057l-288.467-195.765c-20.631-14.035-48.73-8.553-62.765 11.987l-246.784 363.761 306.056-237.658c13.252-10.33 29.214-15.752 46.050-15.752 23.522 0 45.267 10.601 59.603 29.064l145.559 187.482 53.218-79.902c13.764-20.872 8.192-49.182-12.469-63.217zM261.572 489.457c13.854-10.782 30.419-16.474 47.947-16.474 24.365 0 46.923 11.023 61.862 30.268 12.83 16.504 18.432 37.015 15.812 57.766-2.59 20.721-13.161 39.213-29.666 52.043-33.16 25.751-84.149 19.245-109.779-13.824-12.83-16.474-18.462-36.984-15.842-57.705 2.59-20.751 13.131-39.243 29.666-52.073zM271.541 580.774c9.186 11.866 23.070 18.613 38.069 18.613 10.752 0 20.932-3.494 29.455-10.12 10.15-7.891 16.655-19.275 18.251-31.985 1.596-12.77-1.867-25.389-9.758-35.539-15.782-20.269-47.134-24.395-67.524-8.493-10.18 7.891-16.655 19.275-18.251 32.045-1.596 12.74 1.867 25.329 9.758 35.479z"  horiz-adv-x="1024" />

    
    <glyph glyph-name="gou" unicode="&#58892;" d="M461.036 110.51300000000003c-12.288 0-24.654 4.726-33.95 14.021l-197.71 197.632c-18.747 18.747-18.747 49.31 0 67.978 18.826 18.668 49.31 18.668 67.978 0L461.036 226.53999999999996 879.065 644.5699999999999c18.747 18.747 49.23 18.747 67.899 0 18.668-18.826 18.668-49.231 0-67.9L494.907 124.53499999999997c-9.295-9.295-21.661-14.02-33.87-14.02zM512-128C229.691-128 0 101.61199999999997 0 384 0 666.309 229.691 896 512 896c100.667 0 198.262-29.223 281.836-84.44 16.857-11.186 21.662-33.793 10.398-50.728-11.107-16.857-33.713-21.504-50.806-10.319C681.826 797.853 598.41 822.903 512 822.903 270.02 822.902 73.177 625.9780000000001 73.177 384c0-241.98 196.844-438.823 438.823-438.823 241.98 0 438.823 196.844 438.823 438.823 0 15.36-0.709 30.641-2.284 45.765-2.048 20.007 12.524 37.967 32.61 40.093 20.087 2.127 38.125-12.524 40.173-32.531 1.812-17.723 2.678-35.604 2.678-53.327 0-282.388-229.612-512-512-512z"  horiz-adv-x="1024" />

    
    <glyph glyph-name="lanmanbiaoti" unicode="&#58894;" d="M571.433879 896l48.210465 0 0-791.395654-48.210465 0 0 791.395654ZM404.354023 896.003266l112.403986 0 0-791.395654-112.403986 0 0 791.395654Z"  horiz-adv-x="1024" />

    
    <glyph glyph-name="tit-l" unicode="&#58880;" d="M0 402.99h1025.6V365H0zM417.84 554.9300000000001h607.76v-37.99H417.84zM417.84 251.04999999999995h607.76v-37.99H417.84z"  horiz-adv-x="1025" />

    
    <glyph glyph-name="biaoti2" unicode="&#58881;" d="M0 402.99l1025.6 0L1025.6 365 0 365zM417.84 554.9300000000001l607.76 0 0-37.99L417.84 516.94zM417.84 251.04999999999995l607.76 0 0-37.99L417.84 213.05999999999995z"  horiz-adv-x="1025" />

    
    <glyph glyph-name="biaoti" unicode="&#58992;" d="M218.624 759.808L3.584-34.816h135.168l215.04 794.624z m333.312 0l-215.04-794.624h135.168l215.04 794.624z m333.312 0l-215.04-794.624h135.168l215.04 794.624z"  horiz-adv-x="1024" />

    
    <glyph glyph-name="shijian" unicode="&#59004;" d="M512 621.451246c202.223191 0 366.70811-164.529946 366.70811-366.755184S714.223191-112.014095 512-112.014095 145.29189 52.470823 145.29189 254.696061 309.776809 621.451246 512 621.451246M512 644.775559c-215.426521 0-390.032424-174.606926-390.032424-390.079498 0-215.379447 174.607949-390.03447 390.032424-390.03447s390.032424 174.655023 390.032424 390.03447C902.032424 470.166587 727.424475 644.775559 512 644.775559L512 644.775559zM142.313926 551.053612l-18.496123 14.213382c60.77093 79.129924 142.657774 137.761019 236.844324 169.649793l7.471517-22.140292C278.343428 682.436057 200.260396 626.493317 142.313926 551.053612zM862.641432 551.053612c-58.083599 75.485756-136.189145 131.382445-225.865769 161.768934l7.471517 22.049213c94.050444-31.797695 175.958778-90.473817 236.890375-169.603742L862.641432 551.053612zM728.639197 111.439625 501.179041 246.740497 501.179041 445.77389 524.503355 445.77389 524.503355 260.043093 740.57459 131.485108Z"  horiz-adv-x="1024" />

    
    <glyph glyph-name="liulan" unicode="&#58909;" d="M511.999488 240.673687c-76.517721 0-138.76953 62.250786-138.76953 138.768507s62.251809 138.76953 138.76953 138.76953c76.516698 0 138.768507-62.251809 138.768507-138.76953S588.516186 240.673687 511.999488 240.673687zM511.999488 479.326089c-55.076386 0-99.883895-44.807509-99.883895-99.883895 0-55.075363 44.807509-99.882871 99.883895-99.882871 55.075363 0 99.882871 44.807509 99.882871 99.882871C611.88236 434.51858 567.074851 479.326089 511.999488 479.326089zM960.482873 364.553089c-7.040347-0.001023-13.8351 3.835352-17.289782 10.521634-35.639708 68.973908-99.196233 133.827985-174.370353 177.932482-76.656891 45.420469-167.369915 70.383-255.617795 70.383-0.773619 0-1.545192 0-2.317789 0-88.348164 0-179.051979-24.959461-255.640308-70.341045-75.247798-44.147476-138.804323-109.001553-174.443008-177.974437-4.929266-9.540284-16.656355-13.279445-26.198685-8.348132-9.53926 4.929266-13.277398 16.658402-8.348132 26.198685 38.922475 75.325569 107.897406 145.897881 189.240015 193.620789 41.174772 24.397666 85.84618 43.334971 132.702348 56.245002 47.355541 13.047154 95.715969 19.6045 143.847176 19.48375 48.006364 0.075725 96.396467-6.436596 143.750985-19.48375 46.856168-12.910031 91.527576-31.847336 132.775003-56.286957 81.269955-47.679929 150.244886-118.252241 189.167361-193.57781 4.929266-9.53926 1.192152-21.269419-8.348132-26.198685C966.538799 365.25303 963.488323 364.553089 960.482873 364.553089zM513.240759 100.54316c-0.859577 0-1.716084 0-2.575662 0-47.578622 0-95.531773 6.554276-142.465712 19.485797-46.856168 12.909008-91.527576 31.846312-132.773979 56.286957-81.269955 47.680952-150.244886 118.253264-189.167361 193.57781-4.929266 9.53926-1.192152 21.269419 8.348132 26.198685s21.268396 1.192152 26.198685-8.348132c35.639708-68.973908 99.19521-133.827985 174.370353-177.932482 76.656891-45.420469 167.369915-70.381977 255.617795-70.381977 0.772596 0 1.545192 0 2.317789 0 88.348164 0 179.050955 24.959461 255.639285 70.338998 75.246775 44.148499 138.803299 109.002576 174.444031 177.975461 4.930289 9.540284 16.658402 13.274328 26.199709 8.348132 9.53926-4.929266 13.277398-16.659425 8.347109-26.198685-38.923498-75.326593-107.898429-145.898905-189.241039-193.620789-41.173748-24.397666-85.84618-43.334971-132.702348-56.243979C608.8677 107.098459 560.908408 100.544183 513.240759 100.54316z"  horiz-adv-x="1024" />

    
    <glyph glyph-name="weixin" unicode="&#58975;" d="M498.816 550.944c26.336 0 43.936 17.632 43.936 43.904 0 26.56-17.568 43.744-43.936 43.744s-52.832-17.184-52.832-43.744c0.032-26.272 26.496-43.904 52.832-43.904z m-245.728 87.648c-26.336 0-52.96-17.184-52.96-43.744 0-26.272 26.624-43.904 52.96-43.904 26.24 0 43.808 17.632 43.808 43.904-0.032 26.56-17.568 43.744-43.808 43.744zM1024 269.888c0 138.88-128.832 257.216-286.976 269.536 0.224 1.728 0.32 3.52-0.064 5.312-31.712 147.84-190.688 259.296-369.824 259.296C164.704 804.032 0 662.88 0 489.376c0-93.088 47.52-176.96 137.568-243.104l-31.392-94.368c-2.016-6.144-0.192-12.896 4.704-17.152a16.109 16.109 0 0 1 10.496-3.904 16.26 16.26 0 0 1 7.168 1.696L246.4 191.52l14.528-2.944c36.288-7.456 67.616-13.92 106.208-13.92a405.7 405.7 0 0 1 34.176 1.472c4.576 0.384 8.448 2.688 11.072 6.016C454.88 75.808 572-0.96 709.824-0.96c35.296 0 71.04 8.512 103.104 16.544l90.848-49.664a16.06 16.06 0 0 1 7.68-1.984 15.99 15.99 0 0 1 10.048 3.552c5.056 4.096 7.136 10.848 5.248 17.024l-23.2 77.152C981.344 123.136 1024 196.672 1024 269.888z m-625.408-61.856c-10.4-0.896-20.96-1.344-31.424-1.344-35.328 0-65.216 6.112-99.776 13.248L247.296 224a15.457 15.457 0 0 1-10.272-1.376l-88.288-44.192 22.944 68.928a16.014 16.014 0 0 1-6.016 18.176C76.96 327.36 32 402.688 32 489.376c0 155.84 150.336 282.656 335.136 282.656 163.36 0 308-99.392 337.856-231.584-171.296-2.24-309.888-122.656-309.888-270.56 0-21.504 3.264-42.336 8.768-62.432-1.664 0.416-3.424 0.736-5.28 0.576z m476.864-127.584a16.02 16.02 0 0 1-5.696-17.376l15.136-50.336-62.112 33.984a15.876 15.876 0 0 1-7.68 1.984c-1.312 0-2.624-0.16-3.904-0.512-33.312-8.416-67.776-17.088-101.344-17.088-155.904 0-282.72 107.136-282.72 238.816s126.816 238.784 282.72 238.784C862.784 508.704 992 399.36 992 269.92c0-65.664-41.376-132.96-116.544-189.472zM612.992 384.032c-17.568 0-35.136-17.696-35.136-35.232 0-17.664 17.568-35.104 35.136-35.104 26.4 0 43.84 17.44 43.84 35.104 0 17.568-17.44 35.232-43.84 35.232z m193.024 0c-17.312 0-34.88-17.696-34.88-35.232 0-17.664 17.568-35.104 34.88-35.104 26.304 0 44.064 17.44 44.064 35.104 0 17.568-17.728 35.232-44.064 35.232z"  horiz-adv-x="1024" />

    
    <glyph glyph-name="kefu" unicode="&#58963;" d="M1009.208889 377.628444c0 55.978667-20.48 105.016889-56.490667 136.362667A445.553778 445.553778 0 0 1 75.662222 518.030222C36.750222 486.968889 14.336 436.110222 14.336 377.628444c0-95.402667 58.140444-172.714667 153.543111-172.714666a38.343111 38.343111 0 0 1 38.4 38.4V512c0 17.635556-12.515556 31.459556-28.842667 35.953778 0 0-8.647111 3.982222-43.463111-3.811556a127.431111 127.431111 0 0 1-7.054222-1.536 401.066667 401.066667 0 0 0 774.200889-1.194666 132.835556 132.835556 0 0 1-11.548444 2.730666c-34.816 7.793778-43.463111 3.811556-43.463112 3.811556-16.270222-4.494222-28.785778-18.318222-28.785777-35.953778v-268.686222c0-21.276444 17.123556-38.4 38.343111-38.4 13.084444 0 25.429333 1.422222 37.091555 4.209778a338.545778 338.545778 0 0 0-67.754666-136.021334 281.998222 281.998222 0 0 0-53.987556-50.403555 132.437333 132.437333 0 0 0-17.976889-10.808889l-4.835555-2.389334h-71.964445c-13.824 40.106667-57.799111 69.575111-110.364444 69.575112-63.544889 0-115.143111-42.951111-115.143111-95.971556 0-52.963556 51.598222-95.971556 115.143111-95.971556 52.565333 0 96.540444 29.525333 110.364444 69.575112h75.605334c12.970667 0 16.270222 3.470222 23.950222 7.224888a195.128889 195.128889 0 0 1 26.396444 15.587556c19.228444 13.425778 42.382222 32.995556 64.796445 59.960889 37.888 45.624889 73.329778 111.957333 85.390222 200.021333 36.408889 31.516444 56.888889 81.635556 56.888889 138.126222z"  horiz-adv-x="1024" />

    
    <glyph glyph-name="zhiding" unicode="&#58901;" d="M925.2 124.5c-9.6 0-19.2 3.9-26.2 11.5L514.9 555.5l-390-419.6c-13.4-14.4-35.9-15.2-50.3-1.8s-15.2 35.9-1.8 50.3L489 632.2c6.7 7.3 16.2 11.4 26.1 11.4h0.1c9.9 0 19.4-4.2 26.1-11.5l410.2-447.9c13.3-14.5 12.3-37-2.2-50.3-6.9-6.3-15.5-9.4-24.1-9.4z"  horiz-adv-x="1024" />

    
    <glyph glyph-name="hzs" unicode="&#58967;" d="M967.111111 327.11111100000005V384h-56.888889V440.888889h-56.888889V497.777778h-56.888889V554.666667h-56.888888V611.555556h-56.888889V668.444444h-56.888889V725.333333h-56.888889V782.222222H455.111111v-56.888889H398.222222v-56.888889H341.333333v-56.888888H284.444444v-56.888889H227.555556v-56.888889H170.666667v-56.888889H113.777778v-56.888889H56.888889v-56.888889H0V440.888889h56.888889V497.777778h56.888889V554.666667h56.888889V611.555556h56.888889V668.444444h56.888888V725.333333h56.888889V782.222222h56.888889V839.111111h56.888889V896h113.777778v-56.888889h56.888889v-56.888889h56.888889v-56.888889h56.888889v-56.888889h56.888888v-56.888888h56.888889v-56.888889h56.888889v-56.888889h56.888889v-56.888889h56.888889v-113.777778h-56.888889zM170.666667 42.66666699999996a113.777778 113.777778 0 0 1 113.777777-113.777778h56.888889v170.666667a113.777778 113.777778 0 0 0 113.777778 113.777777h113.777778a113.777778 113.777778 0 0 0 113.777778-113.777777v-170.666667h56.888889a113.777778 113.777778 0 0 1 113.777777 113.777778v284.444444h56.888889v-284.444444a170.666667 170.666667 0 0 0-170.666666-170.666667h-113.777778v227.555556a56.888889 56.888889 0 0 1-56.888889 56.888888H455.111111a56.888889 56.888889 0 0 1-56.888889-56.888888v-227.555556H284.444444a170.666667 170.666667 0 0 0-170.666666 170.666667v284.444444h56.888889v-284.444444z"  horiz-adv-x="1024" />

    
    <glyph glyph-name="hzye" unicode="&#58930;" d="M237 26.5c-6.66 0-13.37 2.42-18.64 7.3-11.17 10.31-11.87 27.71-1.56 38.83L474.56 351.6 216.8 630.63c-10.31 11.12-9.61 28.52 1.56 38.83s28.57 9.61 38.83-1.56l275-297.67c9.72-10.53 9.72-26.75 0-37.28l-275-297.61c-5.42-5.89-12.78-8.84-20.19-8.84zM501.26 26.5c-6.66 0-13.37 2.42-18.64 7.3-11.17 10.31-11.87 27.71-1.56 38.83L738.82 351.6 481.06 630.63c-10.31 11.12-9.61 28.52 1.56 38.83 11.12 10.31 28.57 9.61 38.83-1.56l275-297.67c9.72-10.53 9.72-26.75 0-37.28l-275-297.61c-5.42-5.89-12.78-8.84-20.19-8.84z"  horiz-adv-x="1024" />

    
    <glyph glyph-name="jiaocheng" unicode="&#58899;" d="M543.636 431.874c34.708 0 67.346-13.467 91.905-37.92l30.128-30 30.134 29.995c24.557 24.443 57.188 37.904 91.887 37.904 34.736 0 67.39-13.486 91.951-37.975 24.565-24.49 38.092-57.054 38.092-91.69 0-34.637-13.527-67.2-38.092-91.691l-213.966-213.34-213.99 213.36c-50.708 50.559-50.708 132.823-0.002 183.381 24.563 24.49 57.22 37.976 91.953 37.976m0 42.519c-44.194 0-88.386-16.81-122.106-50.429-67.442-67.244-67.442-176.269 0-243.512l244.145-243.426 244.12 243.406c67.443 67.243 67.443 176.268 0 243.512-33.715 33.616-77.915 50.428-122.105 50.428-44.158 0-88.303-16.775-122.015-50.332-33.712 33.568-77.876 50.353-122.039 50.353zM399.49 27.392H168.495c-12.176 0-24 2.388-35.142 7.098-10.752 4.544-20.404 11.047-28.689 19.326-8.285 8.28-14.792 17.927-19.34 28.674-4.715 11.138-7.106 22.958-7.106 35.131V729.308c0 12.173 2.39 23.993 7.105 35.131 4.549 10.747 11.057 20.394 19.342 28.674 8.284 8.279 17.937 14.78 28.689 19.325 11.141 4.71 22.965 7.097 35.141 7.097h525.65c12.177 0 24-2.388 35.141-7.097 10.753-4.544 20.405-11.046 28.69-19.325 8.285-8.28 14.792-17.927 19.341-28.674 4.714-11.138 7.105-22.958 7.105-35.13v-146.512c0-11.327-9.183-20.51-20.51-20.51s-20.51 9.183-20.51 20.51V729.308c0 27.133-22.096 49.208-49.257 49.208h-525.65c-27.16 0-49.258-22.075-49.258-49.208v-611.687c0-27.134 22.097-49.21 49.258-49.21H399.49c11.327 0 20.51-9.182 20.51-20.51s-9.183-20.509-20.51-20.509z"  horiz-adv-x="1024" />

    
    <glyph glyph-name="jiaocheng1" unicode="&#58910;" d="M1259.2225 370.461914V550.497035c19.80898 21.05161 20.832322 42.030123 19.80898 54.017845-4.970519 47.000642-56.430009 66.005568-73.315155 73.022772-122.801056 47.000642-350.71397 139.978585-476.511956 192.022842-76.312085 38.009851-101.091584 30.992648-175.356985 1.023342-19.80898-8.040545-347.790135-131.060889-474.611464-184.055393C9.867942 657.509384 0 614.529014 0 590.55357c0-40.056535 27.703334-76.019702 78.285673-97.071311l151.527733-61.985296v-402.100364l12.937968-12.937968C248.672139 10.391674 384.411164-127.613323 633.083304-127.613323c232.810336 0 365.625526 139.028339 371.546291 145.0222l11.914627 13.011064V427.476691l56.430009 24.04854-1.973589-82.013563-45.538725-77.043044 137.712614-132.011135L1315.725605 294.442213l-56.503105 76.019701z m-331.855236-304.00571a460.942537 460.942537 0 0 0-294.28396-105.038761c-172.360054 0-278.422157 76.019702-314.092941 105.038761V394.510455l223.965737-92.027697h0.950246c71.341566-27.045471 125.797987-24.998786 194.215718 4.970519l189.2452 81.063317v-322.06039z m238.731101 215.998287l-27.703333 26.022128 20.759226 35.012921 4.020273 160.006852c6.871011 22.001856-1.023342 40.056535-12.937969 49.997573a45.758013 45.758013 0 0 1-56.430009 4.020273L702.451281 390.490182c-46.562067-20.978514-77.335427-22.001856-126.821329-4.020273l-462.696838 190.049254c-11.914626 5.043615-18.785638 10.014134-21.782568 14.034407a86.253123 86.253123 0 0 0 22.732815 13.96131c126.894425 52.994504 468.690699 182.008709 472.637875 183.032051h1.023342c59.42694 23.975444 59.42694 23.975444 104.015419 1.023342l2.923835-1.023342c124.847741-51.020915 350.71397-143.998858 475.56171-192.022842v-255.03148l24.779499-33.039332-28.726676-24.998786z"  horiz-adv-x="1315" />

    
    <glyph glyph-name="shequ-active" unicode="&#59003;" d="M114.036-128c-9.309 0-18.618 9.309-18.618 18.618v195.491l-4.655 4.655c-27.927 39.564-51.2 86.109-65.164 132.655-16.291 51.2-25.6 104.727-25.6 160.582 0 134.982 53.527 262.982 148.945 360.727l2.327 2.327c95.418 95.418 223.418 148.945 360.727 148.945 132.655 0 260.655-51.2 356.073-144.291l6.982-6.982c46.545-46.545 83.782-102.4 109.382-162.909 25.6-62.836 39.564-128 39.564-197.818 0-132.655-51.2-260.655-144.291-356.073l-6.982-6.982c-46.545-46.545-102.4-83.782-162.909-109.382-60.509-25.6-128-39.564-197.818-39.564h-397.964zM512 858.764c-125.673 0-244.364-48.873-335.127-139.636l-2.327-2.327c-88.436-88.436-137.309-207.127-137.309-332.8 0-51.2 6.982-100.073 23.273-146.618 13.964-46.545 37.236-90.764 67.491-132.655 2.327-4.655 4.655-6.982 4.655-11.636v-183.855h379.345c125.673 0 246.691 48.873 335.127 139.636 88.436 88.436 139.636 207.127 139.636 335.127 0 125.673-48.873 246.691-139.636 335.127-88.436 88.436-209.455 139.636-335.127 139.636zM502.691 121.018c-4.655 0-6.982 2.327-11.636 4.655l-183.855 176.873c-44.218 44.218-55.855 100.073-34.909 153.6 23.273 58.182 81.455 97.745 141.964 97.745 27.927 0 55.855-9.309 81.455-25.6l4.655-2.327 4.655 2.327c25.6 16.291 53.527 25.6 81.455 25.6 60.509 0 118.691-39.564 141.964-97.745 23.273-53.527 9.309-109.382-34.909-153.6l-2.327-2.327-179.2-174.545c-2.327-2.327-6.982-4.655-9.309-4.655zM416.582 523.636c-48.873 0-95.418-32.582-114.036-76.8-16.291-41.891-6.982-86.109 27.927-121.018l172.218-165.236 169.891 165.236c34.909 34.909 44.218 79.127 27.927 121.018-18.618 46.545-65.164 76.8-114.036 76.8-27.927 0-53.527-9.309-76.8-27.927-2.327-2.327-6.982-4.655-9.309-4.655-2.327 0-6.982 2.327-9.309 4.655-20.945 18.618-48.873 27.927-74.473 27.927z"  horiz-adv-x="1024" />

    
    <glyph glyph-name="th_tj" unicode="&#59479;" d="M514.453333 254.76266699999996L785.92 25.322667000000024 753.066667-128l-238.613334 171.392L275.84-128l-32.853333 153.322667 271.466666 229.44z m355.754667 401.386666L1024 623.296l-171.306667-238.741333L1024 145.79200000000003l-153.792-33.408-229.333333 272.170667 229.333333 271.594666z m-716.416 0l229.333333-271.594666-229.333333-272.170667L0 145.79200000000003l171.306667 238.762667L0 623.296l153.792 32.853333zM512 448a64 64 0 1 0 0-128 64 64 0 0 0 0 128zM753.066667 896l32.853333-153.877333-271.466667-229.44L243.008 742.122667 275.84 896l238.613333-171.392L753.088 896z"  horiz-adv-x="1024" />

    
    <glyph glyph-name="jiantou2" unicode="&#58968;" d="M106.951359 419.999912c23.394826 0 42.358737-18.96391 42.358737-42.35976 0-23.390733-18.96391-42.357713-42.358737-42.357713s-42.358737 18.96698-42.358737 42.357713C64.592622 401.036002 83.556533 419.999912 106.951359 419.999912zM274.258852 419.999912c23.394826 0 42.35976-18.96391 42.35976-42.35976 0-23.390733-18.964934-42.357713-42.35976-42.357713s-42.358737 18.96698-42.358737 42.357713C231.900116 401.036002 250.864026 419.999912 274.258852 419.999912zM441.566346 419.999912c23.394826 0 42.358737-18.96391 42.358737-42.35976 0-23.390733-18.96391-42.357713-42.358737-42.357713s-42.35976 18.96698-42.35976 42.357713C399.207609 401.036002 418.17152 419.999912 441.566346 419.999912zM608.874863 419.999912c23.393803 0 42.35976-18.96391 42.35976-42.35976 0-23.390733-18.964934-42.357713-42.35976-42.357713s-42.35976 18.96698-42.35976 42.357713C566.515103 401.036002 585.480037 419.999912 608.874863 419.999912zM952.288237 406.721491 688.470689 670.540062c-12.095479 12.089339-35.304064 8.487302-51.842739-8.057513-16.537651-16.538675-20.148899-39.753399-8.05649-51.845809l226.63981-226.641857L628.5776 157.358143c-12.092409-12.087293-8.481162-35.310204 8.05649-51.839669 16.538675-16.540721 39.747259-20.146852 51.842739-8.065699l263.817548 263.820618c5.715165 5.708002 7.880481 13.919011 6.875594 22.721491C960.168718 392.798387 958.003402 401.001209 952.288237 406.721491z"  horiz-adv-x="1024" />

    
    <glyph glyph-name="-_jiantou" unicode="&#58936;" d="M938.666667 330.524444H85.333333c-15.739259 0-28.444444 12.705185-28.444444 28.444445s12.705185 28.444444 28.444444 28.444444h853.333334c15.739259 0 28.444444-12.705185 28.444444-28.444444s-12.705185-28.444444-28.444444-28.444445zM938.287407 330.903704c-7.300741 0-14.696296 2.844444-20.195555 8.438518L696.604444 563.38963c-10.998519 11.188148-10.903704 29.202963 0.18963 40.201481 11.188148 10.998519 29.202963 10.903704 40.201482-0.18963l221.487407-224.047407c10.998519-11.188148 10.903704-29.202963-0.18963-40.201481-5.594074-5.499259-12.8-8.248889-20.005926-8.248889zM714.24 108.657778c-7.300741 0-14.696296 2.844444-20.195556 8.438518-10.998519 11.188148-10.903704 29.202963 0.18963 40.201482l224.047407 221.487407c11.188148 10.998519 29.202963 10.903704 40.201482-0.189629 10.998519-11.188148 10.903704-29.202963-0.18963-40.201482L734.245926 116.906667c-5.594074-5.499259-12.8-8.248889-20.005926-8.248889z"  horiz-adv-x="1024" />

    
    <glyph glyph-name="shouhou" unicode="&#58947;" d="M512 434c-7.7 0-15.4 2.9-21.2 8.8l-80 80c-11.7 11.7-11.7 30.7 0 42.4s30.7 11.7 42.4 0l58.8-58.8 58.8 58.8c11.7 11.7 30.7 11.7 42.4 0s11.7-30.7 0-42.4l-80-80c-5.8-5.9-13.5-8.8-21.2-8.8zM612 394H412c-16.6 0-30 13.4-30 30s13.4 30 30 30h200c16.6 0 30-13.4 30-30s-13.4-30-30-30z m0-100H412c-16.6 0-30 13.4-30 30s13.4 30 30 30h200c16.6 0 30-13.4 30-30s-13.4-30-30-30zM512 194c-16.6 0-30 13.4-30 30V424c0 16.6 13.4 30 30 30s30-13.4 30-30v-200c0-16.6-13.4-30-30-30z m369.9 207.1c-4.1 0-8.3 0.9-12.3 2.6l-59.4 26.7c-15.1 6.8-21.9 24.5-15.1 39.7 6.8 15.1 24.5 21.9 39.7 15.1l37.5-16.9 23.4 31.1c10 13.2 28.8 15.9 42 5.9s15.9-28.8 5.9-42l-37.8-50.2c-5.7-7.7-14.7-12-23.9-12zM871.8 440.4c-13.6 0-25.8 9.2-29.1 23-43.8 182.3-227.7 295-410 251.2-113-27.1-203.3-108.9-241.7-218.7-5.5-15.6-22.6-23.9-38.2-18.4-15.6 5.5-23.9 22.6-18.4 38.2 21.7 62 58.7 118.3 106.9 162.8 49.8 45.9 111.2 78.6 177.4 94.5 52.5 12.6 105.9 14.5 158.7 5.8 51-8.5 99.3-26.5 143.6-53.7s82.3-62 113-103.6c31.8-43.1 54.3-91.6 66.9-144.1 3.9-16.1-6.1-32.3-22.2-36.2-2.3-0.6-4.6-0.8-6.9-0.8zM104.3 256.7c-6.3 0-12.6 2-18 6-13.2 10-15.9 28.8-5.9 42l37.8 50.2c8.4 11.2 23.5 15.1 36.3 9.3l59.4-26.7c15.1-6.8 21.9-24.5 15.1-39.7-6.8-15.1-24.5-21.9-39.7-15.1l-37.5 16.9-23.4-31.1c-6-7.7-15-11.8-24.1-11.8zM511.8-16.1c-21.7 0-43.5 1.8-65.1 5.4-51 8.5-99.3 26.5-143.6 53.7-44.3 27.1-82.3 62-113 103.6-31.8 43.1-54.3 91.6-66.9 144.1-3.9 16.1 6.1 32.3 22.2 36.2 16.1 3.9 32.3-6.1 36.2-22.2 43.8-182.3 227.7-295 410-251.2 113 27.1 203.3 108.9 241.7 218.7 5.5 15.6 22.6 23.9 38.2 18.4 15.6-5.5 23.9-22.6 18.4-38.2-21.7-62-58.7-118.3-106.9-162.8-50-46-111.4-78.6-177.6-94.5-31-7.5-62.3-11.2-93.6-11.2z"  horiz-adv-x="1024" />

    
    <glyph glyph-name="shejishi1" unicode="&#58946;" d="M396.47897 37.30556c119.377793 17.029397 199.880396 126.774399 182.850999 243.743995 0 9.804804-2.408198 17.029397-4.816395 24.426004l-22.017806-2.408198-26.834201-4.816395c0-9.804804 2.408198-17.029397 4.816395-24.426004 14.621199-90.135394-48.679993-175.454393-141.395599-190.247606-92.715606-14.621199-178.034604 48.679993-192.655804 138.987401-14.621199 90.135394 48.679993 175.454393 141.395599 190.247606 9.804804 2.408198 17.029397 2.408198 26.834201 0l-4.816395 26.834201-2.408198 22.017806c-7.396607 0-17.029397 0-24.426004-2.408198C213.627971 442.054762 133.125367 332.30976 150.154764 215.340165S276.929163 17.867966 396.47897 37.30556zM52.794777 200.718965C28.368774 371.356963 145.338369 529.781959 315.976366 556.61616c7.396607 2.408198 17.029397 2.408198 24.426004 2.408198l-4.816395 24.426004-2.408198 22.017806c-7.396607 0-17.029397-2.408198-24.426004-2.408198C111.279575 573.645557-25.299629 390.794557 3.94277 195.730556c12.213002-80.502604 51.260205-148.792206 104.756593-202.288594l39.047203 29.242399C99.066573 66.547959 62.427567 130.021166 52.794777 200.718965zM681.678365 417.628759l-41.455401-26.834201c14.621199-29.242399 26.834201-60.892995 31.650596-95.123803 26.834201-168.2298-92.715606-326.654796-263.353603-353.488997-36.639006-4.816395-73.105997-4.816395-107.336805 2.408198l-7.396607-43.863598 0-2.408198c39.047203-7.396607 80.502604-9.804804 121.958004-2.408198 197.472199 29.242399 334.051403 212.093398 304.809004 407.1574C713.328962 344.522762 701.287974 383.569965 681.678365 417.628759zM1001.108569 854.028557C959.653168 883.270956 881.558762 900.300353 747.55977 797.951957c-214.501596-160.833193-373.098606-465.642197-380.323198-477.855199l-9.804804-19.437594 39.047203-22.017806 12.213002 19.437594c0 0 36.639006 68.289602 95.123803 156.016798l2.408198 0c92.715606-39.047203 173.046195-39.047203 241.335797-4.816395 87.727196 46.271796 124.366202 141.395599 136.579204 178.034604 73.105997 14.621199 119.377793 75.514195 136.579204 134.171006C1030.350967 800.360155 1025.534572 836.99916 1001.108569 854.028557zM974.274367 771.117756c-12.213002-43.863598-51.260205-92.715606-112.1532-99.940198l-17.029397-2.408198-2.408198-17.029397c0-2.408198-26.834201-116.969595-116.969595-163.413405-53.668402-26.834201-119.377793-26.834201-197.472199 4.816395 65.881404 92.715606 151.200403 195.064001 243.743995 268.169998 51.260205 39.047203 146.211994 97.532001 199.880396 56.0766C979.090762 812.573156 981.670974 795.543759 974.274367 771.117756z"  horiz-adv-x="1026" />

    
    <glyph glyph-name="kaifa" unicode="&#59006;" d="M159.232 627.370667m-17.066667 0a17.066667 17.066667 0 1 1 34.133334 0 17.066667 17.066667 0 1 1-34.133334 0ZM273.066667 627.370667m-17.066667 0a17.066667 17.066667 0 1 1 34.133333 0 17.066667 17.066667 0 1 1-34.133333 0ZM216.234667 627.370667m-17.066667 0a17.066667 17.066667 0 1 1 34.133333 0 17.066667 17.066667 0 1 1-34.133333 0ZM341.333333 379.733333l51.2 51.2a17.066667 17.066667 0 1 1-24.234666 24.234667l-63.488-63.658667a17.066667 17.066667 0 0 1 0-24.064l63.488-63.658666a17.066667 17.066667 0 0 1 24.234666 0 17.066667 17.066667 0 0 1 0 24.064zM585.728 304.128a17.066667 17.066667 0 0 1 24.064 0L673.450667 366.933333a17.066667 17.066667 0 0 1 0 24.064l-63.658667 63.658667a17.066667 17.066667 0 0 1-24.064-24.234667l51.2-51.2-51.2-51.2a17.066667 17.066667 0 0 1 0-23.893333zM529.066667 449.706667a17.066667 17.066667 0 0 1-23.381334-6.314667L442.709333 332.8a17.066667 17.066667 0 1 1 29.525334-17.066667l63.658666 110.08a17.066667 17.066667 0 0 1-6.826666 23.893334zM953.344 213.333333a4.949333 4.949333 0 0 0-4.608 3.242667 178.005333 178.005333 0 0 1-28.501333 49.322667 4.949333 4.949333 0 0 0 0 5.632 39.253333 39.253333 0 0 1-14.336 53.589333l-12.8 7.68V644.437333a51.2 51.2 0 0 1-51.2 51.2H136.533333a51.2 51.2 0 0 1-51.2-51.2v-432.469333a39.936 39.936 0 0 1 39.765334-39.765333H358.4l-17.066667-63.146667h-22.698666a73.898667 73.898667 0 0 1-71.850667-56.832H204.8a17.066667 17.066667 0 0 1 0-34.133333h434.688a36.181333 36.181333 0 0 1 1.194667-12.117334 38.4 38.4 0 0 1 18.261333-23.893333l36.010667-20.821333a39.253333 39.253333 0 0 1 53.589333 14.506666 5.290667 5.290667 0 0 0 5.290667 2.389334 166.229333 166.229333 0 0 1 56.661333 0 5.12 5.12 0 0 0 5.290667-2.56 39.253333 39.253333 0 0 1 34.133333-19.456 38.741333 38.741333 0 0 1 19.626667 5.12l36.010666 20.821333a39.082667 39.082667 0 0 1 18.261334 23.893333 38.570667 38.570667 0 0 1-3.925334 29.696 5.12 5.12 0 0 0 0 5.802667 179.541333 179.541333 0 0 1 28.501334 49.152 4.778667 4.778667 0 0 0 4.608 3.242667 39.424 39.424 0 0 1 39.253333 39.253333v41.642667A39.253333 39.253333 0 0 1 953.344 213.333333zM119.466667 644.437333a17.066667 17.066667 0 0 0 17.066666 17.066667h705.365334a17.066667 17.066667 0 0 0 17.066666-17.066667v-51.2H119.466667z m5.632-438.101333a5.632 5.632 0 0 0-5.632 5.632V559.104h739.498666V349.866667a39.082667 39.082667 0 0 1-43.178666-17.066667 4.949333 4.949333 0 0 0-5.12-2.218667 175.274667 175.274667 0 0 1-56.661334 0 4.778667 4.778667 0 0 0-5.12 2.218667 39.082667 39.082667 0 0 1-53.589333 14.336l-36.010667-20.821333a38.229333 38.229333 0 0 1-18.261333-23.722667 39.594667 39.594667 0 0 1 3.754667-29.866667 4.608 4.608 0 0 0 0-5.632 178.005333 178.005333 0 0 1-28.501334-49.322666 4.949333 4.949333 0 0 0-4.608-3.242667 39.082667 39.082667 0 0 1-23.210666-7.68zM580.266667 109.056H375.466667l17.066666 63.146667h179.2v-39.082667a39.594667 39.594667 0 0 1 8.533334-24.064z m-261.461334-34.133333h303.786667a187.733333 187.733333 0 0 1 13.312-22.698667H282.794667a39.765333 39.765333 0 0 0 35.84 22.698667z m639.658667 58.197333a5.12 5.12 0 0 0-5.12-5.12 39.424 39.424 0 0 1-36.693333-25.258667 144.384 144.384 0 0 0-22.869334-39.765333 39.424 39.424 0 0 1-3.584-44.373333 4.437333 4.437333 0 0 0 0-3.754667 4.949333 4.949333 0 0 0-2.389333-3.242667L852.309333-8.533333a5.12 5.12 0 0 0-6.997333 2.048 39.424 39.424 0 0 1-40.448 18.944 135.168 135.168 0 0 0-45.397333 0 39.424 39.424 0 0 1-40.448-19.114667 5.290667 5.290667 0 0 0-6.997334-1.877333l-36.010666 20.821333a4.949333 4.949333 0 0 0-2.389334 3.242667 4.437333 4.437333 0 0 0 0 3.754666 39.765333 39.765333 0 0 1-3.584 44.373334 142.506667 142.506667 0 0 0-23.04 39.765333A38.912 38.912 0 0 1 610.986667 128a5.12 5.12 0 0 0-5.12 5.12v41.642667a4.949333 4.949333 0 0 0 5.12 5.12 39.253333 39.253333 0 0 1 36.522666 25.258666 140.117333 140.117333 0 0 0 23.04 39.765334 39.765333 39.765333 0 0 1 3.584 44.373333 4.778667 4.778667 0 0 0 0 3.925333 4.437333 4.437333 0 0 0 2.389334 3.072l36.010666 20.821334a4.778667 4.778667 0 0 0 2.56 0 5.12 5.12 0 0 0 4.266667-2.389334 39.594667 39.594667 0 0 1 40.448-19.114666 135.168 135.168 0 0 0 45.397333 0A39.765333 39.765333 0 0 1 845.312 315.733333a4.949333 4.949333 0 0 0 6.826667 1.706667l36.010666-20.821333a4.437333 4.437333 0 0 0 2.389334-3.072 4.778667 4.778667 0 0 0 0-3.925334 39.253333 39.253333 0 0 1 3.584-44.202666 145.237333 145.237333 0 0 0 22.869333-39.936A39.594667 39.594667 0 0 1 953.344 179.2a4.949333 4.949333 0 0 0 5.12-5.12zM782.165333 231.424a77.482667 77.482667 0 1 1 77.482667-77.482667 77.482667 77.482667 0 0 1-77.482667 77.482667z m0-120.832a43.349333 43.349333 0 1 0 43.349334 43.349333A43.349333 43.349333 0 0 0 782.165333 110.933333z"  horiz-adv-x="1024" />

    
    <glyph glyph-name="dingzhifangan" unicode="&#58916;" d="M588.637091 427.729455l16.453818-16.453819-65.815273-65.838545-16.477091 16.453818 49.384728 49.384727-49.384728 49.338182 16.477091 16.477091 49.338182-49.361454z m-229.911273-16.453819l49.384727-49.384727-16.47709-16.453818L325.818182 411.275636l16.453818 16.453819L391.633455 477.090909l16.47709-16.453818-49.384727-49.361455zM486.4 198.98181799999998l16.477091-16.453818-16.477091-16.453818-16.453818 16.453818-49.338182-49.361455-16.477091 16.453819-32.907636 32.907636-49.384728-49.361455-16.453818 16.453819L257.186909 197.81818199999998H256V640h418.909091v-232.727273h-23.272727v116.363637H279.272727v-315.019637l42.542546-42.542545 49.384727 49.361454 16.453818-16.453818 32.907637-32.907636 49.361454 49.361454 16.453818-16.453818zM279.272727 546.909091h372.363637v69.818182H279.272727v-69.818182zM512 896l442.181818-256v-512L512-128 69.818182 128V640L512 896z m0-28.276364L93.090909 625.850182v-483.700364l418.909091-241.873454 418.909091 241.873454V625.850182L512 867.7236359999999zM325.818182 593.454545h23.272727v-23.272727h-23.272727v23.272727z m46.545454 0h23.272728v-23.272727h-23.272728v23.272727z m46.545455 0h23.272727v-23.272727h-23.272727v23.272727z m60.997818-147.269818l16.453818-16.477091-49.338182-49.338181-16.47709 16.430545 49.361454 49.384727z m286.021818-163.188363l2.071273-5.050182-20.782545-25.134546a14.708364 14.708364 0 0 1 0-18.152727l19.735272-23.133091-2.071272-5.026909a107.496727 107.496727 0 0 0-19.735273-35.234909l-4.165818-5.026909-31.162182 5.026909c-6.237091 1.024-13.498182-3.025455-15.592727-9.053091l-10.379637-30.184727-5.189818-1.000727a113.245091 113.245091 0 0 0-51.944727 0l-6.237091 1.000727-10.402909 30.184727c-2.071273 6.050909-9.355636 10.077091-15.592728 9.076364l-32.186181-5.050182-4.165819 4.026182c-4.142545 5.026909-8.308364 10.077091-11.403636 16.104727a71.540364 71.540364 0 0 0-9.378909 20.130909L535.272727 211.52581799999996l20.782546 24.157091a14.731636 14.731636 0 0 1 0 18.106182L535.272727 277.946182l2.094546 5.026909c5.189818 13.102545 11.403636 25.181091 20.759272 36.235636l4.165819 4.026182 31.162181-5.026909c6.237091-1.000727 13.498182 3.025455 15.592728 9.076364l11.403636 30.184727 5.213091 1.000727a144.244364 144.244364 0 0 0 50.920727 0l6.213818-1.000727 10.40291-29.207273c2.071273-6.027636 9.355636-10.053818 15.592727-10.053818l32.186182 4.026182 4.165818-4.026182c4.165818-5.026909 8.308364-10.053818 11.426909-16.104727 4.142545-6.050909 7.284364-12.078545 9.355636-19.106909z m-27.508363 6.958545l-6.306909 8.610909-20.014546-1.908363c-16.802909-1.908364-33.629091 7.68-38.888727 22.085818l-6.330182 17.268363a87.179636 87.179636 0 0 1-31.557818 0l-7.354182-18.222545c-5.259636-14.405818-23.133091-23.994182-38.912-21.131636l-18.944 2.885818c-5.259636-5.748364-8.401455-12.474182-11.566545-19.2l13.684363-14.382546c10.519273-11.52 10.519273-29.765818 0-42.24l-13.684363-14.382545c2.094545-3.84 3.165091-7.68 6.306909-11.52 2.094545-2.885818 3.165091-5.748364 5.259636-7.68l21.038545 2.885818c16.826182 1.908364 33.652364-7.68 38.912-22.085818l6.330182-18.222546a87.272727 87.272727 0 0 1 31.557818 0l7.354182 19.2c5.259636 14.382545 23.133091 23.970909 38.912 21.108364l18.944-2.885818c4.189091 5.771636 8.401455 12.474182 11.566546 19.2l-12.613818 13.428363a32.186182 32.186182 0 0 0-1.070546 41.262546l13.684364 15.36a102.167273 102.167273 0 0 0-6.306909 10.565818zM651.636364 197.81818199999998a46.545455 46.545455 0 1 0 0 93.090909 46.545455 46.545455 0 0 0 0-93.090909z m0 23.272727a23.272727 23.272727 0 1 1 0 46.545455 23.272727 23.272727 0 0 1 0-46.545455z"  horiz-adv-x="1024" />

    


  </font>
</defs>
</svg>
