<?xml version="1.0" standalone="no"?>
<!DOCTYPE svg PUBLIC "-//W3C//DTD SVG 1.1//EN" "http://www.w3.org/Graphics/SVG/1.1/DTD/svg11.dtd" >
<!--
2013-9-30: Created.
-->
<svg>
<metadata>
Created by iconfont
</metadata>
<defs>

<font id="iconfont" horiz-adv-x="1024" >
  <font-face
    font-family="iconfont"
    font-weight="500"
    font-stretch="normal"
    units-per-em="1024"
    ascent="896"
    descent="-128"
  />
    <missing-glyph />
    
    <glyph glyph-name="paixu2" unicode="&#58885;" d="M685.50110164 525.8616263L532.47618094 685.68836554 532.65231878 685.87261261 512 707.07451876 491.34452802 685.87261261 491.52246805 685.68701452 338.49889836 525.8616263 359.15121714 504.65656693 511.99864836 664.30041075 664.84562966 504.65656693ZM338.49889836 252.80504036000002L491.52381906 92.97830111999997 491.34768122 92.79405405 512 71.59214789999999 532.65547198 92.79405405 532.47753195 92.97965213999998 685.50110164 252.80504036000002 664.84878286 274.01009973 512.00135164 114.36625590999995 359.15437034 274.01009973Z"  horiz-adv-x="1024" />

    
    <glyph glyph-name="yuyin" unicode="&#58902;" d="M391.03022766 492.16091002l-106.11360669-109.23054815L393.15212321 273.69474434999995c57.29987025 59.96925831 57.29987025 158.49473477-2.12189555 218.46616567zM499.26355731 599.25652707l-53.05680334-53.54780853c89.13626969-89.95606005 89.13626969-235.60137749 0-325.55961013l53.05680334-53.54563594c118.84787679 119.94503438 118.84787679 312.70584761 0 432.6530546zM605.38078498 708.4877994l-53.05897592-53.54780853c148.56020809-149.92531836 148.56020809-391.95031822 0-541.88432692l53.05897592-53.54346335c178.27036679 177.77429223 178.27036679 469.06130612 0 648.9755988z"  horiz-adv-x="1024" />

    
    <glyph glyph-name="ziyuan2" unicode="&#59276;" d="M586.58394309 242.63400546000003a231.07785261 231.07785261 0 1 0 231.07785323 230.63261542 231.96832636 231.96832636 0 0 0-231.07785324-230.63261542z m0 394.92496174a164.29234632 164.29234632 0 1 1 164.29234632-164.29234632A164.29234632 164.29234632 0 0 1 586.58394309 637.5589672zM290.05629452 81.01307915999996a33.39275314 33.39275314 0 0 0-25.37849309 54.76411523L428.5249112 332.57182073a33.39275314 33.39275314 0 1 0 51.20222144-44.52367106L315.43478695 94.37018053999998a32.05704344 32.05704344 0 0 0-25.37849243-13.35710138zM473.04858225 63.203610870000034a34.72846348 34.72846348 0 0 0-21.37136208 7.56902415L217.92794692 265.78631381a33.39275314 33.39275314 0 0 0 44.52367106 51.20222206l231.96832635-195.01367942A33.39275314 33.39275314 0 0 0 473.04858225 63.203610870000034z"  horiz-adv-x="1024" />

    
    <glyph glyph-name="ziyuan3" unicode="&#59277;" d="M448.5021795 62.276890149999986a243.22566017 243.22566017 0 1 0 242.75701763 243.22566017 243.69430271 243.69430271 0 0 0-242.75701763-243.22566017z m0 415.68624364a172.46058347 172.46058347 0 1 1 112.9429367-42.17785997 172.92922665 172.92922665 0 0 1-112.9429367 42.17785997zM784.05048924 391.73284174a35.61685993 35.61685993 0 0 0-35.14821678 32.80500277V635.4271451H528.17147087a35.61685993 35.61685993 0 0 0-35.14821675 35.14821674 35.61685993 35.61685993 0 0 0 35.14821674 35.14821678h255.87901838a35.61685993 35.61685993 0 0 0 35.14821675-35.14821678V424.53784451a35.61685993 35.61685993 0 0 0-35.14821675-32.80500278zM588.62640399 441.40898812a34.21093104 34.21093104 0 0 0-24.83807318 10.31014358 34.67957358 34.67957358 0 0 0 0 49.67614639l187.45715627 189.8003709a35.14821675 35.14821675 0 0 0 49.67614639-49.6761464l-187.45715629-189.80037089a34.67957358 34.67957358 0 0 0-24.83807318-10.31014358z"  horiz-adv-x="1024" />

    
    <glyph glyph-name="dianhua" unicode="&#58955;" d="M666.23249204 278.76106618999995c-10.43981443 6.83142194-24.50553753 3.62590867-34.94535131-6.83142257L554.17965248 194.82215599999995C456.17501983 247.44162293 371.83323106 327.77214060999995 322.822156 426.17965248l80.7333963 77.10748825c6.83142194 10.45733062 10.43981443 24.5230537 6.83142256 34.94535132a393.5249485 393.5249485 0 0 0-20.89714504 126.11856267C389.48982982 685.23068355 375.44162293 699.29640664 354.54447788 699.29640664H231.64894528C210.76931645 699.29640664 196.70359336 685.23068355 196.70359336 664.35105472c0-142.8467884 50.09709565-273.85244537 133.72070942-376.39384355C439.58692548 154.07885354999996 605.85323017 68.70359336000001 792.35105472 68.70359336000001 813.23068355 68.70359336000001 827.29640664 82.76931645000002 827.29640664 103.64894528000002v119.28714012c0 20.89714503-14.06572309 34.94535193-34.94535192 34.94535194-45.38516636 0-87.56481884 6.83142194-126.11856267 20.87962885z m110.86171996 175.12963708c0-8.04005837 0-16.46547914-2.01439366-24.50553691h49.81683226c0 8.04005837 1.99687745 16.46547914 1.99687744 24.50553691C826.89352804 588.8375653200001 718.86947577 699.29640664 587.09309397 699.29640664h-8.02254156v-51.00795186h8.04005837c106.02717483-0.40287861 189.9836012-88.35305988 189.98360121-194.39775151m-97.60175406 0c0-8.04005837-2.01439365-16.46547914-4.02878728-24.50553691h51.81370907c2.01439365 8.04005837 2.01439365 16.46547914 2.01439367 24.50553691-2.01439365 79.52476048-63.86503855 145.00131405-141.77828401 145.00131405h-8.04005836v-51.00795187h8.04005836c49.79931607 0 91.96145174-40.98853287 91.96145176-93.99336218"  horiz-adv-x="1024" />

    
    <glyph glyph-name="appqzone" unicode="&#58944;" d="M879.49716479 469.10451828c-1.44942324 4.38284124-5.32382767 7.50681655-9.93769985 7.89383578l-250.35650794 21.49430219L521.33946462 729.98304849c-1.8119902 4.24708897-5.93766157 7.01524402-10.55153374 7.01524402-4.61724473 0-8.78591847-2.7850177-10.58779029-7.03042081L402.38808237 498.49265542 152.01892642 476.99835324c-4.58520364-0.38701922-8.51188513-3.51183746-9.94191531-7.89383579-1.39546033-4.40054764-0.07588641-9.22015476 3.40306787-12.23114501L335.40852615 292.32543696000005l-56.94151848-244.76876533c-1.0337363-4.4806495 0.72344723-9.20413422 4.41235188-11.90820712 3.75888894-2.69142489 8.74291609-2.89463104 12.72609009-0.49578882l215.17995164 129.75671256L725.92066465 35.123163389999945c1.86426727-1.12227072 3.90728843-1.68972967 6.0017437-1.68972967 2.32548542 0 4.70662124 0.72176057 6.74036774 2.16612542 3.72178948 2.77405637 5.47728635 7.47561923 4.41572526 11.95711167l-45.03752683 193.54736838c19.27758636 9.72774865 40.58976132 26.13937088 40.58976132 26.13937087s-84.28747824-41.15469068-386.83082263-21.06175176l219.30056461 158.9121329c0 0-8.6299302 13.40231946-283.43523725 22.98757077-18.32563778 0.66273843 224.07463972 45.96249353 403.13030273 7.67798162L470.6113269 277.81939691c0 0 88.31955679-13.12660025 221.66146362-11.60550687l-6.09533651 26.10058475 189.94784024 164.55889765C879.62195577 459.8843627 880.94152966 464.70396982 879.49716479 469.10451828L879.49716479 469.10451828 879.49716479 469.10451828zM879.49716479 469.10451828"  horiz-adv-x="1024" />

    
    <glyph glyph-name="feed" unicode="&#59113;" d="M367.1253433 157.83644944000002q0-36.21866438-25.35306491-61.5717293t-61.57172927-25.35306489-61.57172928 25.35306489-25.35306491 61.5717293 25.35306491 61.57172928 61.57172928 25.35306489 61.57172927-25.35306489 25.35306491-61.57172928z m231.79945088-55.68619592q0.90546649-12.67653245-7.69646635-21.73119814-8.14919921-9.50739933-21.2784653-9.50739934l-61.11899565 0q-11.31833232 0-19.46753232 7.47009915t-9.05466569 18.78843225q-9.96013298 103.67592623-83.52929384 177.24508789t-177.24508791 83.52929387q-11.31833232 0.90546649-18.78843226 9.05466569t-7.47009914 19.46753232l0 61.11899563q0 13.12926609 9.50739934 21.2784653 7.69646636 7.69646636 19.46753232 7.69646636l2.26366661 0q72.43732795-5.88553258 138.53639049-36.4450308t117.25792518-82.1710945q51.6115963-51.15886346 82.17109451-117.25792519t36.44503081-138.53639049z m231.7994509-0.90546647q0.90546649-12.22379881-8.14919921-21.27846531-8.14919921-9.0546657-20.82573164-9.0546657l-64.74086241 0q-11.77106596 0-20.14663159 7.92283278t-8.82829928 19.24116511q-5.43279973 97.33766001-45.72606371 184.94155346t-104.80775916 152.11838943-152.11838941 104.80775915-184.94155348 46.17879656q-11.31833232 0.45273364-19.24116511 8.82829929t-7.92283278 19.69389873l0 64.74086239q0 12.67653245 9.05466571 20.82573165 8.14919921 8.14919921 19.92026516 8.14919923l1.35820014 0q118.61612531-5.88553258 227.04575122-54.32799658t192.63801982-133.10359074q84.66112756-84.20839392 133.10359074-192.63801982t54.32799658-227.04575123z"  horiz-adv-x="1024" />

    
    <glyph glyph-name="filter" unicode="&#58994;" d="M801.34215635 687.03882674c-10.2725026 8.5604191-23.969173 13.6966704-39.37792612 13.6966704H260.32368625C227.79409496 700.73549714 200.40075415 673.34215635 200.40075415 640.81256503c0-13.6966704 5.13625131-27.39334002 13.69667041-39.3779269l205.45005203-243.11589463v-202.02588424c0-10.2725026 5.13625131-18.8329217 13.6966704-22.25708949l130.11836602-65.05918262c3.4241678-1.7120835 6.8483348-3.4241678 11.9845861-3.4241678 5.13625131 0 8.5604191 1.7120835 13.6966704 3.4241678 6.8483348 5.13625131 11.98458611 13.6966704 11.98458611 22.2570887V360.03082700000004l205.45005202 243.11589542c10.2725026 11.98458611 15.40875391 27.39334002 13.69667041 42.80209392 1.7120835 15.40875391-5.13625131 30.8175078-18.8329217 41.0900104z m-30.8175078-51.36251299L558.22626171 385.7120835c-3.4241678-5.13625131-6.8483348-10.2725026-6.84833481-17.12083741v-234.55547632l-78.7558538 39.3779269V368.59124609c0 6.8483348-1.7120835 11.98458611-6.84833481 17.12083741L253.47535145 635.67631375c0 1.7120835-1.7120835 3.4241678-1.71208428 5.13625128 0 5.13625131 3.4241678 8.5604191 8.56041908 8.5604191h501.64054398c1.7120835 0 3.4241678 0 5.13625131-1.71208429 1.7120835-1.7120835 3.4241678-5.13625131 3.42416701-5.13625129 1.7120835-1.7120835 1.7120835-5.13625131 0-6.8483348z"  horiz-adv-x="1024" />

    
    <glyph glyph-name="ios" unicode="&#58883;" d="M581.67676162 604.0933557999999c21.32485878 27.47026427 37.48127395 66.25504812 31.66107544 105.83105712-34.92119125-2.42061253-75.66123997-24.67683717-99.40604076-53.63634807-21.69834387-26.26062854-39.53041298-65.27808622-32.59244129-103.17844131 38.17996601-1.21030626 77.4763641 21.5575326 100.33740661 50.98373226zM770.05942279 231.65563268999995c-15.27198639-33.84901411-22.58143159-49.02712633-42.22996591-79.0118773-27.47160533-41.90542949-66.11624845-94.05253093-114.0269427-94.42534547-42.55651391-0.46534767-53.54448551 27.75054571-111.27911164 27.42466823s-69.83970036-27.98321955-112.44315136-27.5634679c-47.91002374 0.4660182-84.50686888 47.49161314-111.93086657 89.39503104-76.68446842 117.05304362-84.73887219 254.45264308-37.48060346 327.55245923 33.66260683 51.86816103 86.69547812 82.17878949 136.56076669 82.17878949 50.75105841 0 82.64480768-27.88934537 124.68903684-27.88934539 40.74004872 0 65.55635609 27.93628247 124.22234809 27.93628247 44.41924566 0 91.49177766-24.21216002 125.01424379-66.11624847-109.83613154-60.2953794-92.04898791-217.43604627 18.9035757-259.52654195v0.04559602h0.00067053z"  horiz-adv-x="1024" />

    
    <glyph glyph-name="android" unicode="&#58900;" d="M332.18443727 491.53189102h359.66945744v-260.92614184a42.93187587 42.93187587 0 0 0-42.66355197-43.12353643h-29.47733287v-88.93031446a40.36362963 40.36362963 0 1 0-80.72725927 0v88.93031446H485.0142494v-88.93031446c0-22.30924258-18.09271903-40.32529765-40.4402936-40.32529764a40.24863367 40.24863367 0 0 0-39.9419778 40.32529764l-0.34498787 88.93031446h-29.0173484a43.00853985 43.00853985 0 0 0-43.08520446 43.12353643V491.53189102z m-55.65811049 7.4364142a40.24863367 40.24863367 0 0 1-40.36362964-39.94197715v-168.50761286c0-22.34757457 18.05438705-40.32529765 40.36362964-40.32529764s39.94197714 18.01605506 39.94197777 40.32529764V459.02632808c0 21.88759011-17.93939109 39.94197714-39.94197777 39.94197714z m416.47752878 6.66977384H330.61282458c0 62.28955235 37.25873494 116.37604952 92.49519295 144.55009295L395.24063062 701.47643103a5.71147292 5.71147292 0 0 0 1.9549332 7.85806668c2.7215742 1.18829285 6.28645335 0.42165248 7.85806668-2.37658634l28.17404344-51.70991146c23.95751989 10.61797285 50.59828262 16.48277371 78.77232606 16.48277432s54.81480553-5.86480086 78.77232607-16.4444417L618.9463695 706.99624338c1.57161334 2.75990617 5.13649249 3.52654717 7.85806667 2.37658631a5.71147292 5.71147292 0 0 0 1.95493321-7.85806669l-27.86738691-51.28825901c54.89147015-28.21237544 92.11187311-82.29887259 92.11187309-144.58842493zM444.57395579 586.32700632a15.25614889 15.25614889 0 0 1-15.2178169 15.29448087 15.21781689 15.21781689 0 0 1-14.91116036-15.29448087c0-8.20305456 6.63144186-15.25614889 14.91116036-15.25614824a15.21781689 15.21781689 0 0 1 15.2178169 15.25614824z m164.98106568 0a15.21781689 15.21781689 0 0 1-14.91116036 15.29448087 15.25614889 15.25614889 0 0 1 0-30.55062911 15.14115293 15.14115293 0 0 1 14.91116036 15.25614824z m137.91865175-87.3587011a39.86531317 39.86531317 0 0 1-39.94197777-39.94197715v-168.50761286a40.13363771 40.13363771 0 1 1 80.30560741 0V459.02632808a40.01864175 40.01864175 0 0 1-40.36362964 39.94197714z"  horiz-adv-x="1024" />

    
    <glyph glyph-name="xingxing" unicode="&#58890;" d="M873.70470047 421.08653348c-49.11361084-56.12974994-136.58334633-149.21214223-136.58334631-149.21214224s14.03227821-101.96984112 22.45190023-171.66467831c3.74198359-35.54979658-23.85538252-50.98492057-54.72690415-36.95200586-58.93671452 27.59736548-148.7443148 70.63049207-168.8577131 80.45359638-20.58122636-9.35527626-110.85665407-51.92057542-170.26119601-79.51730502-31.33934906-13.56445077-58.93671452 1.40348229-55.66255902 36.95200587 7.95179396 69.6948372 22.45190023 171.19685089 22.45189959 171.19685088S244.11202785 364.95742004 194.53122609 421.08716998c-17.77426178 20.58122636-6.07984774 49.58143826 28.53302096 54.72690351 71.09831948 12.6294324 181.01931871 32.74283134 181.01931872 32.74283133s60.33956096 103.84115084 98.22785752 167.45486795C523.36047775 714.83508835 537.86058336 710.15744992 540.19972052 709.22179505c6.54831167-1.87130973 16.83924341-9.82246783 29.93650326-33.21002228 37.41983329-63.61435296 96.82437524-167.45550444 96.82437524-167.45550444s108.51815279-20.11403543 178.68081806-32.74283134c34.14567713-5.14546587 45.37162725-34.61350456 28.06519291-54.7269035z"  horiz-adv-x="1092" />

    
    <glyph glyph-name="back" unicode="&#59100;" d="M666.28799998 697.376l-11.312 11.312a16 16 0 0 1-22.64 0L315.31199998 391.664a16 16 0 0 1 0-22.64L632.33599998 52a16 16 0 0 1 22.64 0l11.312 11.312a16 16 0 0 1 0 22.624l-294.4 294.4 294.4 294.4a16 16 0 0 1 0 22.64z"  horiz-adv-x="1024" />

    
    <glyph glyph-name="weibiaoti1" unicode="&#58884;" d="M740.55129147 205.09729070000003l2.28938554 22.15537429c39.29498065 25.54638238 64.12130232 88.65253616 61.21031053 145.14854842-1.10776509 21.57071022-6.19118784 39.63960031-14.26560027 54.37296084l0 15.26254605c0 0-20.00135641 46.15698748-73.85100591 51.54195968l-61.54267415-6.92354811c0 0-42.31054768-7.69280708-50.77265722-87.69816018-0.69543188-6.56045012-0.99083953-12.90546944-1.12622892-19.13973474-1.79089088-11.08997946-2.52940094-22.78311583-1.90166666-35.00543772 2.11091143-40.92583226 18.07505436-78.25738013 42.25521417-102.17334604l0-9.85298924c0 0-89.23705518 41.54131774-100.77586692 40.77201526l0 44.59996222c53.56058092 49.59723732 86.0425064 146.56415778 81.53170198 234.26811964 0 0.00615414 0 0.01846311 0 0.02461724 2.35092683 36.12552413 1.02775995 75.72857386-10.75768836 104.20393325 0 0-7.415922 25.94640807-51.09885655 36.86407769-5.2926675 4.33260588-10.88075645 8.22206512-16.69033894 11.73621383 17.32424475 6.16657423 20.3706332 16.02568424-62.21965741 28.12501056-113.50909906 16.63500543-165.98019744-50.15107997-180.14789438-141.05546479-6.73891698-26.27253488-9.649858-55.28375171-8.06824814-86.07369042 3.92642317-76.2391215 34.44543078-145.295766 79.74696088-185.30486066l0-49.69572079c0 0-187.7053048-38.4641804-221.55374294-124.62366314s76.92807072-144.62494702 133.85558277-132.31668775l369.25575476 0c0 0 183.08934498 18.46282399 221.55374295 58.46553681l0 78.46696573C877.48393904 151.24756866999996 797.47807831 200.48205609000001 740.55129147 205.09729070000003Z"  horiz-adv-x="1024" />

    
    <glyph glyph-name="icon_sign_email" unicode="&#58903;" d="M1107.20108047 628.29001494c0-24.25424403-8.47309808-46.8138682-23.72467559-67.78478643-15.19862023-21.02387489-33.89239291-40.40608721-57.56411122-54.96922508-118.6233761-79.11755517-191.43906422-127.6260426-221.94221803-146.95529827-3.38923911-1.58870592-10.16771793-6.46073764-20.33543586-12.92147466s-18.64081601-12.92147467-25.41929483-17.74054973a169.19718124 169.19718124 0 0 0-25.41929484-14.56313787c-8.47309808-4.81907445-16.94619675-9.69110615-27.11391469-12.92147467-6.72552156-3.17741186-15.19862023-3.17741186-23.67171831-4.81907444h1.69461985c-6.77847882 0-15.2515769 1.58870592-23.72467497 4.81907444a83.14227664 83.14227664 0 0 0-27.11391469 12.92147467l-25.41929484 14.56313787c-8.47309808 4.81907445-16.94619675 11.27981208-25.41929484 17.74054973-10.16771793 6.46073764-16.94619675 11.27981208-20.33543587 12.92147466-40.61791507 27.43165589-82.98340606 54.91626842-123.65427778 82.34792369-54.22782878 35.53405611-86.42560244 56.55793101-96.54036371 64.60737458-20.33543587 12.92147467-37.28163262 30.71498105-55.92244863 51.68589929C268.62913486 579.83448416 260.15603678 599.21669647 260.15603678 618.59890878 260.15603678 641.2114896 266.93451561 660.5937019200001 280.49147264 676.74554571 294.04842969 692.8973889 312.6892463 700.94683246 336.41392128 700.94683246h696.27685122c20.2824792 0 38.92329521-6.46073764 52.48025224-20.97091825 15.2515769-14.56313787 22.03005573-32.30368698 22.03005573-51.68589927zM1107.20108047 495.84489728v-358.5179711c0-19.38221231-6.77847882-37.17571869-22.03005573-50.09719337-15.2515769-14.5101806-32.1448164-20.97091824-54.17487212-20.97091824H336.41392128c-20.33543587 0-38.97625188 6.46073764-54.22782877 20.97091824-15.2515769 12.92147467-22.03005573 30.71498105-22.03005573 50.09719337v358.5179711a270.08000761 270.08000761 0 0 1 47.44935056-38.76442463c113.48655986-74.29848073 193.13368407-125.98438003 235.44621841-155.00474183 13.55695705-9.69110615 28.80853394-19.38221231 44.06011083-29.12627513 11.86233779-6.40778038 25.41929484-14.5101806 44.06011085-20.97091822 18.64081601-8.04944357 35.58701276-11.27981208 52.53320952-11.2798121 15.2515769 0 33.89239291 3.17741186 52.48025227 11.2798121 18.64081601 8.10240023 33.89239291 14.56313787 44.06011144 21.02387488 15.2515769 9.69110615 28.80853394 19.38221231 44.06011084 29.07331847A9463.17981163 9463.17981163 0 0 0 1059.80468656 457.08047265c16.94619675 9.69110615 33.89239291 24.25424403 47.39639391 38.76442463z"  horiz-adv-x="1365" />

    
    <glyph glyph-name="icon1" unicode="&#58896;" d="M623.63667072 481.24677937c7.26955397 0 14.41771952-0.55130425 21.60779303-1.34032622C625.8881297 570.04501807 529.54721444 636.99919 419.53641673 636.99919c-122.96680258 0-223.69141572-83.77942136-223.69141571-190.2338387 0-61.4245136 33.49587259-111.86702336 89.50922555-151.05079221l-22.35852011-67.27137082 78.21074512 39.18449117c27.9669366-5.49064112 50.40349183-11.17998275 78.3306882-11.17998275 7.03039019 0 13.9834683 0.31575354 20.85706592 0.82803988-4.34540232 14.97263614-6.9118925 30.61579658-6.9118925 46.92875897C433.51988503 401.93198105 517.41997179 481.24677937 623.63667072 481.24677937L623.63667072 481.24677937zM503.39820863 541.8822710100001c16.90617388 0 28.0059538-11.09977992 28.00595379-27.92791869 0-16.74649128-11.09833456-27.9669366-28.0059538-27.96693659-16.71108643 0-33.53633517 11.21972299-33.53633517 27.96693659C469.86187345 530.821509 486.64810498 541.8822710100001 503.39820863 541.8822710100001L503.39820863 541.8822710100001zM346.85605296 485.98813806c-16.78839922 0-33.69601847 11.21972299-33.69601846 27.9669366 0 16.82813876 16.90689691 27.92791868 33.69601846 27.92791868 16.78550848 0 27.92791868-11.06076201 27.9279187-27.92791868C374.78469469 497.20786103 363.6422845 485.98813806 346.85605296 485.98813806L346.85605296 485.98813806zM827.85470008 306.89165251c0 89.43046742-89.50850323 162.30953239-190.03875059 162.3095324-106.45152732 0-190.23456106-72.91880452-190.23456103-162.3095324 0-89.66746349 83.82205163-162.30664236 190.23456103-162.30664236 22.280485 0 44.75461279 5.56939856 67.11457828 11.17636968l61.34286613-33.65194283-16.82813876 55.92881476C794.35738212 211.77617816999998 827.85470008 256.44986581 827.85470008 306.89165251L827.85470008 306.89165251zM576.11686726 334.89832865000005c-11.09833456 0-22.35707475 11.06003968-22.35707476 22.35852013 0 11.13879714 11.2587402 22.35418472 22.35707476 22.3541847 16.9863767 0 28.00739917-11.21610992 28.00739917-22.3541847C604.1235441 345.95836833 593.10252163 334.89832865000005 576.11686726 334.89832865000005L576.11686726 334.89832865000005zM699.16170566 334.89832865000005c-11.02102178 0-22.23640935 11.06003968-22.23640936 22.35852013 0 11.13879714 11.17781504 22.35418472 22.23640936 22.3541847 16.82813876 0 28.00667684-11.21610992 28.00667684-22.3541847C727.16765945 345.95836833 715.98984441 334.89832865000005 699.16170566 334.89832865000005L699.16170566 334.89832865000005z"  horiz-adv-x="1024" />

    
    <glyph glyph-name="QQ" unicode="&#58895;" d="M233.91493833 333.88626576c-23.55088206-56.72039234-27.41800953-110.82990607-8.44940869-120.89503239 13.03168987-7.01531737 33.52519522 8.89212288 52.67163852 38.02044712 7.6434418-31.73163511 26.33960314-60.40589349 53.12570438-83.51027746-28.13316325-10.60622146-46.4698558-27.95153691-46.46985579-47.55204608 0-32.26516247 49.70507498-58.33610999 111.01153241-58.33611 55.28251717 0 101.12424854 21.21622682 109.57365721 49.07695055a315.05737346 315.05737346 0 0 0 13.21331621 0c8.45319257-27.86072374 54.38573711-49.07695055 109.66825428-49.07695055 61.29888967 0 111.0115324 26.15797681 111.01153239 58.33611 0 19.60050917-18.33669254 36.9458246-46.47363968 47.55582995 26.78988512 23.00600303 45.57307575 51.77485848 53.12570438 83.50649359 19.14644331-29.12454036 39.54913546-44.94495133 52.58460924-38.02423101 18.96481698 10.06512633 15.18850266 64.26923709-8.45319257 120.89881628-18.51075112 44.58548253-43.68491859 77.39552403-62.8313619 84.67949702 0.27243951 2.78493721 0.45028198 5.75150076 0.45028197 8.53643797 0 17.17125687-4.66931049 33.16951029-12.67600497 46.11417089 0.18162634 0.98759322 0.18162634 2.06599962 0.18162634 3.05737672 0 7.90831354-1.88815715 15.370129-5.03256317 21.75353806-4.8547207 115.86246924-78.65177288 207.82215537-198.11649783 207.82215538S318.68146463 613.88975564 313.91377321 498.02350254a49.93589179 49.93589179 0 0 1-5.03256315-21.75353806c0-0.98380934 0.09081317-2.06599962 0.09081316-3.05359284-7.90831354-12.94466059-12.58519178-28.85588472-12.58519179-46.11417089 0-2.87575039 0.09081317-5.6606876 0.35946879-8.54022185-19.05563015-7.28018911-44.31682689-40.09023061-62.83136189-84.67571314z"  horiz-adv-x="1024" />

    
    <glyph glyph-name="sina" unicode="&#58898;" d="M664.60701776 389.76822459c-24.6958226 4.80033607-12.69987076 18.03792268-12.69987077 18.03792268s24.15484786 39.79097307-4.79707719 68.746157c-35.84120572 35.8444646-122.93813825-4.56569642-122.93813823-4.56569642-33.28949959-10.2980733-24.46444183 4.72212285-19.74231899 30.26851415 0 30.11208772-10.29481441 81.1331749-98.93971681 51.01782829-88.41026276-30.27177304-164.43024874-136.40710563-164.43024875-136.40710562C188.180996 346.34033705 195.22670311 291.83550292999996 195.22670311 291.83550292999996c13.23758662-120.30496001 141.05427414-153.36307883 240.53496568-161.18114145 104.59062159-8.20586979 245.80132217 36.07584535 288.61328067 127.04107315 42.80869961 91.11839534-34.99715477 127.11928635-59.7679317 132.07278996zM443.4982593 164.55979013c-103.89322043-4.8752904-187.8127411 47.22774625-187.8127411 116.5116191 0 69.36534494 83.91952068 125.03034174 187.8127411 129.83393669 103.97469253 4.79707718 188.04738074-38.01488131 188.04738075-107.30201304-0.07821322-69.21217739-84.15416032-134.31816101-188.04738075-139.04354275z m-20.74605524 200.66577942c-104.43745404-12.22733258-92.35677123-110.08509994-92.35677123-110.08509994s-1.08520837-30.96917421 28.0231431-46.76498472c61.15947515-33.05160105 124.02008772-13.07790131 155.83983065 28.02640199 31.7415297 41.11407996 13.08441907 140.97931981-91.50620252 128.82368267z m-26.32200569-137.33588756c-19.50767935-2.32358425-35.22853553 8.90327096-35.22853553 25.23679734 0 16.26183092 13.93824667 33.28949959 33.4491849 35.30348987 22.37223833 2.08568573 37.00462729-10.7640937 37.00462728-27.0943612 0-16.18035883-15.79255163-31.20055497-35.22853553-33.44592601z m61.54728234 52.49084383c-6.58294558-4.9567625-14.71060216-4.25936133-18.19434912 1.62292422-3.63691449 5.80733121-2.24537105 15.02019614 4.41252888 19.89548653 7.74310827 5.72911798 15.79255163 4.10619379 19.27955747-1.70113742 3.48048807-5.88554442 0.92552304-14.71060216-5.49773723-19.81727333z m257.48768002 151.73363686c8.44050944 0 15.56442976 6.27335161 16.79954678 14.32279499 0.15642643 0.61918795 0.23463965 1.16342157 0.23463964 1.7826095 12.77482509 114.81048166-93.98621321 95.06816268-93.9862132 95.06816268-9.44750457 0-17.10914076-7.66489507-17.10914077-17.26556717a17.06351637 17.06351637 0 0 1 17.10914077-17.10914075c76.6424328 16.95597321 59.7679317-59.7679317 59.76793169-59.76793171 0-9.44098682 7.66163617-17.03092754 17.18409509-17.03092754z m-12.46197224 200.20301789c-36.92967295 8.66863132-74.86634106 1.16016268-85.54570376-0.8505687-0.77561437-0.07821322-1.55122877-0.8538276-2.32358426-1.01025404-0.39106608-0.07495433-0.54097474-0.46276151-0.54097474-0.46276151-10.45124084-2.94277222-18.19434911-12.69661189-18.19434911-24.15484787 0-13.70360703 11.07042879-24.92720335 24.85224902-24.92720335 0 0 13.46896737 1.77935064 22.52540589 5.34456968 9.05969739 3.63691449 85.47074944 2.70487368 123.47911298-61.08452081 20.75257301-46.52708619 9.05969739-77.64942794 7.66489506-82.68440366 0 0-4.95350361-12.07416504-4.95350361-23.99842144 0-13.70034814 11.07042879-22.37223833 24.85224902-22.37223833 11.45497709 0 21.13386244 1.54796988 23.92020822 20.98069489h0.15642643c40.8012271 136.02255731-49.77945238 199.81195181-115.89243114 215.21669625z"  horiz-adv-x="1024" />

    
    <glyph glyph-name="delete" unicode="&#59052;" d="M656 608h144a16 16 0 0 0 16-16v-16a16 16 0 0 0-16-16h-48v-496a16 16 0 0 0-16-16H288a16 16 0 0 0-16 16V560h-48a16 16 0 0 0-16 16v16a16 16 0 0 0 16 16h144v80a16 16 0 0 0 16 16h256a16 16 0 0 0 16-16v-80z m-48 0v48H416v-48h192z m32-48H320v-464h384V560h-64z m-208-112h16a16 16 0 0 0 16-16v-192a16 16 0 0 0-16-16h-16a16 16 0 0 0-16 16V432a16 16 0 0 0 16 16z m144 0h16a16 16 0 0 0 16-16v-192a16 16 0 0 0-16-16h-16a16 16 0 0 0-16 16V432a16 16 0 0 0 16 16z"  horiz-adv-x="1024" />

    
    <glyph glyph-name="Null-data" unicode="&#59497;" d="M261.88281684 218.57095197h19.80710531c5.39128313-0.11720156 9.61054781-4.45366875 9.61054875-9.84495187 0-5.39128313-4.21926469-9.84495187-9.61054875-9.84495188h-19.80710531v-19.80710531c-0.11720156-5.27408156-4.45366875-9.61054781-9.84495094-9.61054781-2.57844 0-5.0396775 0.93761437-6.91490718 2.69564156-1.87522875 1.75802719-2.93004562 4.21926469-2.93004469 6.79770469v19.80710531h-19.80710531c-5.39128313 0.11720156-9.61054781 4.45366875-9.61054875 9.84495188 0 5.39128313 4.21926469 9.84495187 9.61054875 9.84495187h19.80710531V238.26085572c0.11720156 5.39128313 4.45366875 9.61054781 9.84495187 9.61054782 5.39128313 0 9.84495187-4.21926469 9.84495094-9.61054782v-19.68990375zM1554.50154497 296.86175885v19.80710531c0 2.57844-1.05481594 5.0396775-2.93004469 6.79770469s-4.33646719 2.81284313-6.91490719 2.69564156c-5.27408156 0-9.72775031-4.21926469-9.84495187-9.61054781V296.86175885h-19.80710532c-2.57844 0-5.0396775-1.05481594-6.79770468-2.93004563s-2.81284313-4.33646719-2.69564157-6.91490625c0-5.27408156 4.33646719-9.84495187 9.61054875-9.84495187h19.80710532v-19.80710532c0-5.39128313 4.33646719-9.61054781 9.84495093-9.61054781 5.39128313 0 9.72775031 4.21926469 9.84495188 9.61054782v19.80710531h19.80710531c5.39128313 0 9.61054781 4.33646719 9.61054875 9.84495187 0 5.27408156-4.21926469 9.72775031-9.61054875 9.84495188h-19.92430687z m-711.4149675-323.12538188h-493.06800188c-5.15687906 0-10.1965575 2.10963281-13.8298125 5.74288875-3.63325594 3.63325594-5.74288875 8.67293344-5.74288875 13.82981344 0 10.78256625 8.9073375 19.57270219 19.57270125 19.57270125h88.83897c-6.91490625 11.83738219-10.43096062 25.31559-10.43096062 39.02820188V620.1043422800001c0 20.74471969 8.32132875 40.66902656 22.97155406 55.43645438 14.65022625 14.65022625 34.69173469 22.8543525 55.43645437 22.8543525h58.71810563v19.68990375c0 20.74471969 8.32132875 40.66902656 22.97155406 55.43645438a78.71273344 78.71273344 0 0 0 55.43645438 22.8543525h469.86204374c20.74471969 0 40.78622906-8.20412625 55.43645438-22.8543525 14.76742781-14.65022625 22.97155406-34.57453313 22.97155406-55.43645438v-568.19436c0-14.18141906-3.7504575-27.54242437-10.43096062-39.02820188h108.29446969c10.78256625 0 19.57270219-8.67293344 19.57270218-19.57270125 0-10.78256625-8.67293344-19.57270219-19.57270218-19.57270218H1055.10464559v-19.68990375c0-14.18141906-3.7504575-27.54242437-10.43096062-39.02820094h10.54816312c10.78256625 0 19.57270219-8.67293344 19.57270125-19.57270219 0-10.78256625-8.9073375-19.57270219-19.57270125-19.57270125h-103.02038812c8.9073375-15.00183094 7.03210875-34.69173469-5.97729282-47.70113531-7.38371344-7.38371344-17.34586781-11.4857775-27.65962593-11.4857775-10.43096062 0-20.39311406 4.10206312-27.65962688 11.4857775l-47.81833687 47.58393281z m71.61030375 39.14540344h62.23416c21.5651325 0 39.02820188 17.46306937 39.02820093 39.26260594V621.04195666c0 21.21352687-16.87706062 38.20778906-37.85618343 38.20778906H505.31097028c-20.86192125 0-37.85618344-17.11146375-37.85618344-38.20778906v-568.89757031c0-21.68233406 17.58027094-39.262605 39.02820094-39.26260594h297.34098468l-10.07935593 10.07935594c-9.96215344 9.84495187-13.82981344 24.37797563-10.19655657 37.85618344l-18.51788625 18.51788531c-57.54608719-42.89586094-138.53253562-34.10572594-185.53045968 20.2759125-46.997925 54.26443688-44.06787938 135.60249094 6.56330062 186.468075 50.86558406 50.98278563 132.43804219 54.03003281 186.81968063 6.91490625 54.38163844-47.11512656 63.17177344-128.33597812 19.92430687-185.88206531l18.51788531-18.51788532c13.47820781 3.63325594 28.01123156-0.23440406 37.85618438-10.1965575l65.51580937-65.51581031z m140.40776437 97.98071063h58.95250969c21.5651325 0.11720156 39.02820188 17.58027094 39.02820094 39.14540343V717.96785135c0 21.68233406-17.46306937 39.14540344-39.02820094 39.14540344H643.60910184c-21.5651325-0.11720156-38.91100031-17.58027094-39.02820094-39.14540344v-19.57270219h371.99853469c20.74471969 0 40.78622906-8.20412625 55.43645438-22.8543525 14.76742781-14.65022625 22.97155406-34.57453313 22.97155406-55.43645437v-509.24185126z m-690.31864219 719.73629625H393.9692534c8.20412625 0 14.88462938-6.56330156 14.88462938-14.65022625S402.17337965 801.29833572 393.9692534 801.29833572h-29.18325v-29.18325c0-8.20412625-6.56330156-14.88462938-14.65022531-14.88462937-3.86766 0-7.6181175 1.64082562-10.43096156 4.45366875-2.81284313 2.81284313-4.33646719 6.56330156-4.21926469 10.43096062V801.18113416h-29.18325c-3.98486156 0-7.73531906 1.52362312-10.54816219 4.21926469-2.81284313 2.81284313-4.33646719 6.56330156-4.33646719 10.43096062 0 8.08692469 6.68050312 14.65022625 14.88462938 14.65022625h29.18325v29.30045156c0 8.20412625 6.56330156 14.88462938 14.65022625 14.88462938s14.65022625-6.68050312 14.65022531-14.88462937v-29.18325zM134.60165465-6.69092083999999c0 10.78256625 8.9073375 19.57270219 19.57270219 19.57270125h117.67061438c10.78256625 0 19.57270219-8.67293344 19.57270125-19.57270125 0-10.78256625-8.9073375-19.57270219-19.57270125-19.57270219h-117.67061438c-5.15687906 0-10.1965575 2.10963281-13.82981344 5.74288875-3.7504575 3.63325594-5.74288875 8.67293344-5.74288875 13.82981344z m617.6535225 126.57795094c38.20778906 38.20778906 38.20778906 100.207545 0 138.53253562-38.20778906 38.20778906-100.207545 38.20778906-138.53253562 0-38.20778906-38.20778906-38.20778906-100.207545 0-138.53253562 38.32499062-38.20778906 100.32474656-38.20778906 138.53253562 0zM545.86279528 580.84173728c0 10.78256625 8.79013594 19.57270219 19.57270125 19.57270125h215.41692187c10.78256625 0 19.57270219-8.79013594 19.57270125-19.57270125s-8.79013594-19.57270219-19.57270125-19.57270218H565.43549653c-5.15687906 0-10.1965575 1.99243031-13.8298125 5.74288875-3.63325594 3.63325594-5.74288875 8.67293344-5.74288875 13.82981343z m0-97.86350906c0 10.78256625 8.67293344 19.57270219 19.45549968 19.57270125h313.63203563c10.78256625 0 19.45549969-8.67293344 19.45549969-19.57270125 0-10.78256625-8.67293344-19.57270219-19.45549969-19.57270219H565.31829496c-5.15687906 0-10.1965575 2.10963281-13.82981343 5.74288875-3.63325594 3.63325594-5.62568719 8.67293344-5.62568625 13.82981344z m0-97.98071062c0 10.78256625 8.79013594 19.57270219 19.57270125 19.57270218h137.12611406c10.78256625 0 19.57270219-8.67293344 19.57270219-19.57270218 0-10.78256625-8.79013594-19.57270219-19.57270219-19.57270219h-137.12611406c-5.15687906 0-10.1965575 1.99243031-13.8298125 5.74288875-3.63325594 3.63325594-5.74288875 8.67293344-5.74288875 13.82981344z m-372.11573719 117.55341187c-20.97912375 0-40.43462344 11.25137344-50.86558406 29.41765406-10.54816219 18.16627969-10.54816219 40.551825 0 58.71810469s29.88646031 29.41765313 50.86558406 29.41765406c32.46490031 0 58.71810562-26.25320437 58.71810562-58.71810562 0.11720156-32.58210187-26.25320437-58.83530719-58.71810562-58.83530719z m0 29.41765406c10.54816219 0 20.15871094 5.62568719 25.4327925 14.65022532 5.27408156 9.14174062 5.27408156 20.2759125 0 29.41765406-5.27408156 9.14174062-15.00183094 14.65022625-25.4327925 14.65022531-16.17384937 0-29.41765313-13.12660219-29.41765313-29.41765312 0.11720156-16.17384937 13.24380375-29.30045156 29.41765313-29.30045157z m1214.32792125 88.13575875c-20.97912375 0-40.43462344 11.25137344-50.86558406 29.41765313-10.54816219 18.16627969-10.54816219 40.551825 0 58.71810562s29.88646031 29.41765313 50.86558406 29.41765313c32.46490031 0 58.71810562-26.25320437 58.71810563-58.71810469 0-32.58210187-26.25320437-58.83530719-58.71810563-58.83530719z m0 29.30045157c10.54816219 0 20.15871094 5.62568719 25.4327925 14.65022625 5.27408156 9.14174062 5.27408156 20.2759125 0 29.41765312-5.27408156 9.14174062-15.00183094 14.65022625-25.4327925 14.65022625-16.17384937 0-29.41765313-13.12660219-29.41765312-29.41765406 0-16.05664781 13.24380375-29.30045156 29.41765312-29.30045156z m0 0"  horiz-adv-x="1620" />

    
    <glyph glyph-name="jia" unicode="&#58881;" d="M880.157 453.61333333H575.934V757.8383333300001c0 35.916-29.11 65.025-65.025 65.025s-65.025-29.11-65.025-65.025v-304.223H141.661a65.025 65.025 0 0 1 0-130.05h304.223v-304.224c0-35.915 29.11-65.025 65.025-65.025s65.025 29.11 65.025 65.025V323.56433332999995H880.15a65.025 65.025 0 0 1 65.025 65.025 65.01 65.01 0 0 1-65.018 65.025z"  horiz-adv-x="1024" />

    
    <glyph glyph-name="jian" unicode="&#58882;" d="M900.3 444H123.7c-33 0-59.7-26.9-59.7-60s26.7-60 59.7-60h776.5c33 0 59.7 26.9 59.7 60 0.1 33.1-26.6 60-59.6 60z"  horiz-adv-x="1024" />

    
    <glyph glyph-name="taiyang" unicode="&#58933;" d="M752.41931153 655.2936399c8.36993432 0 15.62255883-3.08990502 21.72821045-9.16589356 6.1353147-6.08093262 9.18566918-13.3928833 9.18566918-21.73315382 0-8.55285621-3.05035376-15.85986352-9.18566918-21.94079614l-43.67394996-43.66900658c-5.93261719-5.97216773-13.17041016-8.95825195-21.72326709-8.95825195-8.87420678 0-16.20098901 2.98608422-22.08911085 8.75061035-5.88317847 5.87329102-8.80004906 13.2890625-8.80004906 22.14843774 0 8.54791283 2.95642114 15.75604272 8.91375732 21.72821044l43.66900659 43.67394996c6.14025879 6.07598853 13.44726539 9.16589356 21.98034668 9.16589356z m37.66223167-240.39459181h61.79809547c8.52813721 0 15.82031227-2.98608422 21.83697534-9.06207276C879.78271508 399.75604272 882.78857422 392.54791283 882.78857422 384c0-8.55285621-3.00585914-15.85986352-9.07196021-21.83697533-6.01666236-6.07598853-13.30883813-9.06207276-21.83697534-9.06207276h-61.79809547c-8.52813721 0-15.80053734 2.98608422-21.86663841 9.06207276-6.01666236 5.97711182-9.05712867 13.2890625-9.05712867 21.83697533 0 8.55285621 3.04046631 15.76098609 9.05712867 21.83697533 6.06610107 6.07598853 13.33850122 9.06207276 21.86663841 9.06207276zM512 754.78857422c8.52813721 0 15.79064917-3.08990502 21.85180688-9.06207276 6.02160645-6.08093262 9.05712867-13.3928833 9.05712867-21.83697533v-61.79809546c0-8.55285621-3.03552222-15.85986352-9.0521853-21.83697534-6.06610107-6.07598853-13.32861305-9.16589356-21.85675025-9.16589355-8.53802467 0-15.80053734 3.08990502-21.86663842 9.16589355-6.01666236 5.97711182-9.0521853 13.2890625-9.05218458 21.83697534V723.88952613c0 8.44409203 3.03552222 15.76098609 9.05218458 21.83697533C496.20440674 751.6986692 503.46691871 754.78857422 512.00494408 754.78857422zM271.81304907 655.2936399c8.36499023 0 15.61267066-3.08990502 21.743042-9.16589356l43.66900659-43.67394996c6.14025879-6.07598853 9.17083764-13.38793922 9.17083764-21.72821044 0-8.55285621-3.01080323-15.86480689-9.05712938-21.83697534-6.03149391-6.08093262-13.30389404-9.06207276-21.85180617-9.06207275-8.69622827 0-16.02795386 2.98608422-21.95068359 8.85443115l-43.68383814 43.67395068c-5.97216773 5.97216773-8.92858886 13.28411842-8.92858886 22.03967284 0 8.55285621 3.00585914 15.76098609 9.07196021 21.83697462 6.01666236 5.97216773 13.30883813 9.06207276 21.85675096 9.06207276h-0.03955126z m436.93725586-436.91253615c8.36499023 0 15.60772729-2.98608422 21.72326709-9.16589355l43.67394995-43.67395067c6.1353147-6.17980933 9.18566918-13.38793922 9.18566919-21.93585205 0-8.34521461-3.05035376-15.65716529-9.18566919-21.73315382-6.1105957-6.17980933-13.35827613-9.16589356-21.72326636-9.16589356-8.52813721 0-15.84008789 2.98608422-21.98034668 9.16589356l-43.66900659 43.66900587c-5.95733618 5.87329102-8.91375732 13.1852417-8.91375732 21.73315453 0 8.55285621 3.01080323 15.86480689 9.05712866 21.94079614 6.03149391 6.07598853 13.32861305 9.16589356 21.85180689 9.16589355h-0.01977564zM512.00494408 507.59619164c-34.12243628 0-63.22192359-12.05310035-87.39239525-36.2532351-24.1358645-24.10125732-36.21368384-53.25018335-36.21368384-87.34295654 0-34.0927732 12.07782007-63.24169922 36.21368384-87.44677734C448.78796387 272.46185278999997 477.88250709 260.40380835999997 512 260.40380835999997c34.12243628 0 63.23181176 12.05310035 87.4072268 36.15435838C623.51837158 320.75335670000004 635.59619164 349.90228271 635.59619164 384c0 34.0927732-12.07782007 63.24169922-36.18896484 87.34295654C575.23181176 495.54309058 546.12243628 507.59619164 512 507.59619164zM172.12036133 414.89904809h61.79809547c8.53802467 0 15.80053734-2.98608422 21.86663841-9.06207276 6.01666236-6.08093262 9.05712867-13.2890625 9.05712867-21.83697533 0-8.55285621-3.04046631-15.85986352-9.05712867-21.83697533-6.06610107-6.07598853-13.32861305-9.06207276-21.86663841-9.06207276h-61.79809547c-8.52813721 0-15.81042481 2.98608422-21.83697534 9.06207276C144.21728492 368.14013648 141.21142578 375.45208717 141.21142578 384c0 8.55285621 3.00585914 15.76098609 9.07196021 21.83697533 6.03149391 6.07598853 13.30883813 9.06207276 21.83697534 9.06207276zM512.00494408 136.80761742000004c8.52813721 0 15.79064917-2.98608422 21.85180617-9.06207274 6.02160645-6.08093262 9.05712867-13.2890625 9.05712938-21.83697535v-61.79809546c0-8.55285621-3.03552222-15.85986352-9.0521853-21.83697533C527.79559326 16.197509999999966 520.53308129 13.211425780000013 512 13.211425780000013c-8.53802467 0-15.80053734 2.98608422-21.86663842 9.06207276-6.01666236 5.97711182-9.0521853 13.2890625-9.05218458 21.83697533v61.79809546c0 8.55285621 3.03552222 15.76098609 9.05218458 21.83697534 6.06610107 6.07598853 13.32861305 9.06207276 21.86663842 9.06207275z m-196.47839379 81.57348633c8.5034182 0 15.80053734-2.98608422 21.84686279-9.16589355 6.03149391-6.08093262 9.07196021-13.3928833 9.07196021-21.94079614 0-8.44409203-3.08001685-15.65222192-9.19555664-21.72821044l-43.67394995-43.67394996c-6.10565162-6.17980933-13.34838867-9.16589356-21.72326637-9.16589356-8.54791283 0-15.84008789 2.98608422-21.85180687 8.96319533-6.07104516 6.07598853-9.0769043 13.38793922-9.0769043 21.93585205 0 8.65173364 2.95642114 15.96862769 8.92858887 21.94079614l43.68383813 43.66900658c6.10565162 6.17980933 13.44232202 9.16589356 21.95068359 9.16589355h0.03955054zM512 569.39428711c33.628052 0 64.6506958-8.34521461 93.0481565-24.81811547 28.42712378-16.69042992 50.92163109-39.1404419 67.4637456-67.56756568 16.57177758-28.32824708 24.86755347-59.32617188 24.86755347-93.00860596 0-33.68243408-8.27600098-64.68035888-24.86755347-93.10748267-16.58166504-28.32824708-39.08605981-50.77825904-67.4637456-67.4637456-28.36285424-16.58166504-59.37561059-24.82305884-93.0481565-24.82305884-33.66760254 0-64.67047143 8.24139381-93.05804468 24.81811547-28.37768578 16.69042992-50.86230492 39.14538598-67.46374487 67.46868897-16.58166504 28.42712378-24.86755347 59.42504859-24.86755348 93.10748267 0 33.68243408 8.31555152 64.68035888 24.86755348 93.00860596 16.55200195 28.42712378 39.03662109 50.87713647 67.46374487 67.56262231C447.35424828 561.0540158700001 478.371948 569.39428711 512 569.39428711z"  horiz-adv-x="1024" />

    
    <glyph glyph-name="sleepmode" unicode="&#59108;" d="M735.84 636.224a26.848 26.848 0 0 0-2.384-12.256 15.92 15.92 0 0 0-4.32-6.96l-77.552-72.864H720a16 16 0 0 0 16-16v-16a16 16 0 0 0-16-16h-123.84a16 16 0 0 0-16 16v16c0 0.576 0.048 1.136 0.112 1.712a26.832 26.832 0 0 0 1.76 10.96c0.672 3.04 2.24 5.92 4.672 8.208l78.224 73.52H596.16a16 16 0 0 0-16 16v16a16 16 0 0 0 16 16H720a16 16 0 0 0 16-16v-16c0-0.8-0.064-1.568-0.16-2.32zM272 399.888c0-135.792 108.88-245.68 242.976-245.68 128.528 0 233.904 100.96 242.432 228.896a244.848 244.848 0 0 0-119.904-31.216c-136.576 0-247.104 111.552-247.104 248.928 0 3.408 0.08 6.816 0.208 10.192C318.288 567.424 272 488 272 399.888z m170.768 242.976a203.552 203.552 0 0 1-4.368-42.048c0-110.976 89.152-200.928 199.104-200.928 47.856 0 91.776 17.04 126.112 45.44 11.808 9.76 38.24 6.016 40-8.032 1.552-12.256 2.352-24.736 2.352-37.408 0-162.208-130.288-293.68-290.992-293.68S224 237.68 224 399.888c0 121.408 72.992 225.6 177.12 270.336 18.096 7.776 44.976-11.568 41.648-27.36z"  horiz-adv-x="1024" />

    
    <glyph glyph-name="uniEB5C" unicode="&#58880;" d="M521.9609375 810.90885417l3.515625-0.87890625 54.4921875-46.58203125 40.4296875-45.703125 34.27734375-51.85546875 26.3671875-59.765625 14.94140625-59.765625 2.63671875-67.67578125-14.0625-102.83203125-72.94921875-212.6953125q-0.87890625-1.7578125-2.63671875-1.7578125H434.0703125l-65.91796875 184.5703125-18.45703125 95.80078125-2.63671875 66.796875 7.03125 59.765625 17.578125 57.12890625 29.00390625 57.12890625 41.30859375 56.25 58.0078125 55.37109375z m-11.42578125-190.72265625l-9.66796875-2.63671875-17.578125-7.91015625-10.546875-10.546875-6.15234375-7.03125-7.03125-13.18359375-2.63671875-10.546875-1.7578125-14.94140625 0.87890625-11.42578125 4.39453125-13.18359375 1.7578125-6.15234375 7.03125-9.66796875 7.91015625-8.7890625 14.94140625-10.546875 15.8203125-6.15234375 14.94140625-0.87890625 12.3046875 0.87890625 13.18359375 3.515625 5.2734375 2.63671875 14.94140625 10.546875 9.66796875 11.42578125 7.03125 14.0625 3.515625 9.66796875 1.7578125 10.546875-0.87890625 15.8203125-2.63671875 10.546875-4.39453125 8.7890625-7.91015625 12.3046875-11.42578125 10.546875-7.03125 5.2734375-12.3046875 5.2734375-9.66796875 2.63671875h-7.91015625z m11.42578125-242.578125l-1.7578125-5.2734375-10.546875-183.69140625h23.73046875l2.63671875 0.87890625-8.7890625 166.11328125-2.63671875 17.578125-0.87890625 3.515625z m-191.6015625-47.4609375l25.48828125-101.953125 24.609375-58.88671875-73.828125-28.125-55.37109375-31.640625-12.3046875-8.7890625v36.9140625l9.66796875 59.765625 14.0625 37.79296875 27.24609375 48.33984375z m384.9609375 0l25.48828125-27.24609375 36.9140625-56.25 21.97265625-64.16015625 7.03125-50.9765625-0.87890625-30.76171875-51.85546875 32.51953125-77.34375 32.51953125-11.42578125 3.515625 29.8828125 76.46484375zM456.04296875 106.90494792000004h132.71484375l-20.21484375-50.9765625q-0.87890625-2.63671875-3.515625-2.63671875h-87.01171875l-2.63671875 3.515625z m30.76171875-80.859375h70.3125l-34.27734375-107.2265625-0.87890625 2.63671875z"  horiz-adv-x="1035" />

    
    <glyph glyph-name="icon_duihao-xian" unicode="&#58940;" d="M393.821091 20.154182a48.453818 48.453818 0 0 0-34.443636 14.266182L25.832727 367.965091a48.779636 48.779636 0 0 0 0 68.887273c9.216 9.192727 21.434182 14.266182 34.443637 14.266181s25.250909-5.073455 34.443636-14.266181l299.124364-299.124364L943.104 687.034182a48.360727 48.360727 0 0 0 34.443636 14.266182c13.009455 0 25.250909-5.050182 34.443637-14.266182a48.802909 48.802909 0 0 0 0-68.887273L428.264727 34.420364a48.314182 48.314182 0 0 0-34.443636-14.266182z"  horiz-adv-x="1026" />

    
    <glyph glyph-name="checktriangle" unicode="&#59088;" d="M64-64l832 0c35.392 0 64 28.608 64 64L960 832 64-64zM674.88 21.76C667.136 9.344 653.632 0 638.976 0c-0.64 0-1.344 0-1.344 0-14.656 0-27.776 7.36-36.224 18.496L457.28 199.68c-14.848 19.648-11.008 47.808 8.64 62.784 19.776 14.72 47.616 11.008 62.528-8.64l105.024-129.152 189.248 303.808c12.992 20.864 40.512 27.264 61.376 14.272 20.992-12.992 27.264-40.512 14.272-61.44L674.88 21.76z"  horiz-adv-x="1024" />

    
    <glyph glyph-name="top1" unicode="&#59002;" d="M0-47.786666999999966h66.56v100.693334zM460.8 896L0 489.813333v-537.6L1024 896zM261.12 343.03999999999996l18.773333 17.066667-66.56 75.093333 52.906667 46.08-6.826667 6.826667-68.266666-61.44-13.653334 15.36 68.266667 61.44-6.826667 8.533333-59.733333-54.613333-35.84 39.253333 151.893333 136.533333 35.84-39.253333-64.853333-58.026667 6.826667-6.826666 71.68 64.853333 13.653333-15.36-71.68-64.853333 6.826667-6.826667 56.32 49.493333 66.56-75.093333 18.773333 17.066667 13.653333-15.36-174.08-155.306667-13.653333 15.36zM187.733333 493.226667l22.186667 18.773333-10.24 10.24-22.186667-18.773333 10.24-10.24z m42.666667 37.546666l22.186667 18.773334-10.24 10.24-22.186667-18.773334 10.24-10.24z m107.52-11.946666l-87.04-76.8 5.12-6.826667 87.04 76.8-5.12 6.826667z m-44.373333 68.266666l-10.24 10.24-22.186667-18.773333 10.24-10.24 22.186667 18.773333zM273.066667 418.133333l87.04 76.8-5.12 6.826667-87.04-76.8 5.12-6.826667z m15.36-18.773333l87.04 76.8-5.12 6.826667-87.04-76.8 5.12-6.826667z m17.066666-17.066667l87.04 76.8-6.826666 6.826667-87.04-76.8 6.826666-6.826667zM312.32 645.12l61.44 54.613333 20.48-23.893333-15.36-13.653333 95.573333-107.52c6.826667-6.826667 10.24-13.653333 11.946667-20.48 1.706667-6.826667 0-11.946667-3.413333-17.066667-3.413333-5.12-11.946667-13.653333-27.306667-27.306667-6.826667 6.826667-15.36 11.946667-23.893333 18.773334 5.12 3.413333 11.946667 8.533333 17.066666 13.653333 5.12 3.413333 5.12 8.533333 0 13.653333L356.693333 640l-22.186666-20.48-22.186667 25.6z m63.146667 58.026667l105.813333 95.573333L501.76 776.533333l-46.08-40.96 11.946667-18.773333L512 756.0533330000001l71.68-80.213333-23.893333-20.48-52.906667 58.026667-54.613333-47.786667 52.906666-59.733333-23.893333-20.48-71.68 80.213333 30.72 27.306667-11.946667 18.773333-34.133333-30.72-18.773333 22.186667z m102.4-34.133334l22.186666 20.48c15.36-17.066667 25.6-32.426667 34.133334-46.08 25.6 5.12 52.906667 8.533333 80.213333 10.24l1.706667-32.426666c-20.48 0-44.373333-3.413333-73.386667-5.12 3.413333-20.48-1.706667-46.08-18.773333-76.8-10.24 3.413333-20.48 6.826667-34.133334 10.24 10.24 15.36 15.36 29.013333 18.773334 40.96s1.706667 25.6-3.413334 37.546666c-3.413333 11.946667-13.653333 25.6-27.306666 40.96z"  horiz-adv-x="1024" />

    
    <glyph glyph-name="sousuo" unicode="&#58899;" d="M1012.573991-115.664672c-18.074982-18.192982-62.081938-10.884989-62.081938-10.884989l-197.249803 197.405803a463.455538 463.455538 0 1 0 71.905928 71.905928l197.248804-197.248803s8.054992-43.359957-9.822991-61.177939zM829.667174 431.698782A365.007636 365.007636 0 1 1 464.639537 66.652146a365.066636 365.066636 0 0 1 365.027637 365.046636z"  horiz-adv-x="1025" />

    
    <glyph glyph-name="edit" unicode="&#59034;" d="M736 485.728h16a16 16 0 0 0 16-16v-413.92a16 16 0 0 0-16-16H208a16 16 0 0 0-16 16v624a16 16 0 0 0 16 16h394.592a16 16 0 0 0 16-16v-16a16 16 0 0 0-16-16H240v-560h480v381.92a16 16 0 0 0 16 16z m78.16 229.6l11.312-11.328a16 16 0 0 0 0-22.624l-316.8-316.8a16 16 0 0 0-22.608 0l-11.312 11.328a16 16 0 0 0 0 22.624l316.784 316.8a16 16 0 0 0 22.624 0zM328 223.792h304a16 16 0 0 0 16-16v-16a16 16 0 0 0-16-16h-304a16 16 0 0 0-16 16v16a16 16 0 0 0 16 16z m8 104h64a16 16 0 0 0 16-16v-16a16 16 0 0 0-16-16h-64a16 16 0 0 0-16 16v16a16 16 0 0 0 16 16z"  horiz-adv-x="1024" />

    
    <glyph glyph-name="settings" unicode="&#59033;" d="M396.72 575.408a141.184 141.184 0 0 0-99.824-15.92 277.648 277.648 0 0 1-45.344-74.576 141.216 141.216 0 0 0 37.52-95.952 141.248 141.248 0 0 0-41.728-100.32 274.4 274.4 0 0 1 49.952-86.224 141.264 141.264 0 0 0 107.168-14.176 141.216 141.216 0 0 0 63.984-79.296 274.72 274.72 0 0 1 86.816 1.92 141.248 141.248 0 0 0 66.016 86.304 141.216 141.216 0 0 0 101.856 15.488 277.648 277.648 0 0 1 41.92 76.544 141.184 141.184 0 0 0-36.128 94.4c0 34.912 12.768 67.68 34.816 92.96a274.736 274.736 0 0 1-38.192 70.032 141.264 141.264 0 0 0-105.792 14.56 141.312 141.312 0 0 0-67.168 90.912 274.4 274.4 0 0 1-92.784-0.016 141.152 141.152 0 0 0-63.088-76.64z m22.56 116.656c57.312 16 119.024 16.224 178.016-1.216a93.44 93.44 0 0 1 142.288-86.736 322.64 322.64 0 0 0 79.104-142.656 93.328 93.328 0 0 1-41.76-77.84 93.36 93.36 0 0 1 42.88-78.592 322.832 322.832 0 0 0-34.208-85.232 323.392 323.392 0 0 0-47.968-63.568 93.392 93.392 0 0 1-92.352-0.64 93.408 93.408 0 0 1-46.688-83.616 322.704 322.704 0 0 0-171.424-3.84 93.376 93.376 0 0 1-46.704 78.544 93.408 93.408 0 0 1-95.184-1.008A322.432 322.432 0 0 0 192 306.72a93.408 93.408 0 0 1 49.072 82.24c0 34.128-18.304 64-45.632 80.288a323.392 323.392 0 0 0 31.088 73.328 322.832 322.832 0 0 0 56.704 72.256 93.36 93.36 0 0 1 89.488 2.144 93.328 93.328 0 0 1 46.56 75.088z m92.208-385.28a68.864 68.864 0 1 1 0 137.76 68.864 68.864 0 0 1 0-137.76z m0-48a116.864 116.864 0 1 0 0 233.76 116.864 116.864 0 0 0 0-233.76z"  horiz-adv-x="1024" />

    
    <glyph glyph-name="down" unicode="&#59035;" d="M830.24 555.312l11.328-11.312a16 16 0 0 0 0-22.624L530.448 210.24a16 16 0 0 0-22.64 0L196.688 521.376a16 16 0 0 0 0 22.624l11.312 11.312a16 16 0 0 0 22.624 0l288.496-288.496 288.512 288.496a16 16 0 0 0 22.624 0z"  horiz-adv-x="1024" />

    
    <glyph glyph-name="agreement" unicode="&#59031;" d="M754.784 672H272v-550.112l221.296 106.192a53.568 53.568 0 0 0 46.768-0.192l214.72-105.28V672z m-519.648 48h556.512c6.144 0 11.136-4.976 11.136-11.136v-645.392a11.136 11.136 0 0 0-16.032-10l-267.84 131.312a5.568 5.568 0 0 1-4.848 0.016L239.952 53.28a11.136 11.136 0 0 0-15.952 10.032V708.864c0 6.16 4.976 11.136 11.136 11.136z m268.352-349.152a26.368 26.368 0 0 0 30.944 0l33.408-24.224-12.704 39.264c-3.52 10.848 0.352 22.72 9.568 29.44l33.36 24.288-41.28 0.048c-11.392 0-21.488 7.36-25.024 18.192l-12.8 39.232-12.8-39.232a26.368 26.368 0 0 0-25.04-18.192l-41.28-0.048 33.376-24.288c9.216-6.72 13.072-18.592 9.568-29.44l-12.72-39.264 33.424 24.224z m-46.832-85.328a26.368 26.368 0 0 0-40.56 29.472l23.696 73.2-62.192 45.28a26.368 26.368 0 0 0 15.488 47.68l76.96 0.096 23.84 73.152a26.368 26.368 0 0 0 50.128 0l23.856-73.152 76.96-0.08a26.368 26.368 0 0 0 15.488-47.68l-62.208-45.28 23.696-73.216a26.368 26.368 0 0 0-40.56-29.472l-62.288 45.168-62.304-45.168z m24.416 195.744h-11.04l-3.424-10.512a15.232 15.232 0 0 0 14.464 10.512z"  horiz-adv-x="1024" />

    
    <glyph glyph-name="privacy" unicode="&#59037;" d="M683.472 672v-269.28a29.536 29.536 0 0 0-45.568-24.8l-67.456 43.36-67.488-43.36a29.6 29.6 0 0 0-45.568 24.8V672H256v-566.96h511.312V672h-83.84z m-48 0h-130.08v-235.472l49.056 31.52a29.616 29.616 0 0 0 32.016 0l49.008-31.504V672z m-416.336 48H804.16c6.144 0 11.136-4.976 11.136-11.136v-640.688a11.136 11.136 0 0 0-11.136-11.136H219.136a11.136 11.136 0 0 0-11.136 11.136V708.864c0 6.16 4.976 11.136 11.136 11.136z"  horiz-adv-x="1024" />

    
    <glyph glyph-name="information" unicode="&#59038;" d="M536 416v-192a16 16 0 0 0-16-16h-16a16 16 0 0 0-16 16V416a16 16 0 0 0 16 16h16a16 16 0 0 0 16-16z m-32 128h16a16 16 0 0 0 16-16v-32a16 16 0 0 0-16-16h-16a16 16 0 0 0-16 16v32a16 16 0 0 0 16 16z m8-448c159.056 0 288 128.944 288 288s-128.944 288-288 288-288-128.944-288-288 128.944-288 288-288z m0-48c-185.568 0-336 150.432-336 336s150.432 336 336 336 336-150.432 336-336-150.432-336-336-336z"  horiz-adv-x="1024" />

    
    <glyph glyph-name="close" unicode="&#59039;" d="M507.168 422.768L716.48 632.064a16 16 0 0 0 22.624 0l11.312-11.312a16 16 0 0 0 0-22.624L541.12 388.832 750.4 179.52a16 16 0 0 0 0-22.624l-11.312-11.312a16 16 0 0 0-22.624 0L507.168 354.88 297.872 145.6a16 16 0 0 0-22.624 0l-11.312 11.312a16 16 0 0 0 0 22.624l209.296 209.312-209.296 209.296a16 16 0 0 0 0 22.624l11.312 11.312a16 16 0 0 0 22.624 0l209.296-209.296z"  horiz-adv-x="1024" />

    
    <glyph glyph-name="refuse" unicode="&#59040;" d="M512 96c159.056 0 288 128.944 288 288s-128.944 288-288 288-288-128.944-288-288 128.944-288 288-288z m0-48c-185.568 0-336 150.432-336 336s150.432 336 336 336 336-150.432 336-336-150.432-336-336-336z m-112 352h240a16 16 0 0 0 16-16v-16a16 16 0 0 0-16-16H400a16 16 0 0 0-16 16v16a16 16 0 0 0 16 16z"  horiz-adv-x="1024" />

    
    <glyph glyph-name="selection" unicode="&#59041;" d="M682.928 493.008l11.312-11.328a16 16 0 0 0 0-22.624L484.96 249.76a16 16 0 0 0-22.624 0l-99.008 98.992a16 16 0 0 0 0 22.624l11.312 11.328a16 16 0 0 0 22.624 0l76.384-76.384 186.672 186.688a16 16 0 0 0 22.624 0zM512 96c159.056 0 288 128.944 288 288s-128.944 288-288 288-288-128.944-288-288 128.944-288 288-288z m0-48c-185.568 0-336 150.432-336 336s150.432 336 336 336 336-150.432 336-336-150.432-336-336-336z"  horiz-adv-x="1024" />

    
    <glyph glyph-name="increase" unicode="&#59042;" d="M488 408V704a16 16 0 0 0 16 16h16a16 16 0 0 0 16-16v-296H832a16 16 0 0 0 16-16v-16a16 16 0 0 0-16-16H536V64a16 16 0 0 0-16-16h-16a16 16 0 0 0-16 16V360H192a16 16 0 0 0-16 16v16a16 16 0 0 0 16 16h296z"  horiz-adv-x="1024" />

    
    <glyph glyph-name="collection" unicode="&#59043;" d="M746.112 398.24A132.48 132.48 0 0 1 784 491.248C784 564.576 724.784 624 651.776 624a132.16 132.16 0 0 1-118.304-73.392c-8.832-17.712-34.112-17.712-42.944 0A132.16 132.16 0 0 1 372.224 624C299.2 624 240 564.576 240 491.248c0-35.2 13.68-68.16 37.712-92.832 1.84-1.904 3.312-4 4.384-6.192L504.72 154.56l238.592 240.24c0.8 1.2 1.744 2.352 2.8 3.44zM192 491.248C192 591.056 272.672 672 372.224 672c55.344 0 106.192-25.248 139.776-66.624A179.872 179.872 0 0 0 651.776 672C751.328 672 832 591.056 832 491.248c0-46.192-17.376-89.68-48-122.816a24.48 24.48 0 0 0-3.248-4.048l-259.52-261.296a24 24 0 0 0-34.544 0.512l-244.752 261.28a24.176 24.176 0 0 0-4.112 5.936A180.448 180.448 0 0 0 192 491.248z"  horiz-adv-x="1024" />

    
    <glyph glyph-name="upward" unicode="&#59044;" d="M830.24 210.24l11.328 11.312a16 16 0 0 1 0 22.64L530.448 555.312a16 16 0 0 1-22.64 0L196.688 244.192a16 16 0 0 1 0-22.64l11.312-11.312a16 16 0 0 1 22.624 0l288.496 288.512L807.632 210.24a16 16 0 0 1 22.624 0z"  horiz-adv-x="1024" />

    
    <glyph glyph-name="top" unicode="&#59045;" d="M535.12 453.568v-210.016a16 16 0 0 0-16-16h-16.16a16 16 0 0 0-16 16V455.792l-32.88-32.864a16 16 0 0 0-11.312-4.688h-28.304a14.464 14.464 0 0 0-10.24 24.688l97.824 97.808a11.136 11.136 0 0 0 15.744 0l97.808-97.808a14.464 14.464 0 0 0-10.24-24.688h-28.288a16 16 0 0 0-11.312 4.688l-30.64 30.64zM512 96c159.056 0 288 128.944 288 288s-128.944 288-288 288-288-128.944-288-288 128.944-288 288-288z m0-48c-185.568 0-336 150.432-336 336s150.432 336 336 336 336-150.432 336-336-150.432-336-336-336z"  horiz-adv-x="1024" />

    
    <glyph glyph-name="history" unicode="&#59036;" d="M512 96c159.056 0 288 128.944 288 288s-128.944 288-288 288-288-128.944-288-288 128.944-288 288-288z m0-48c-185.568 0-336 150.432-336 336s150.432 336 336 336 336-150.432 336-336-150.432-336-336-336z m16 320V528a16 16 0 0 0 16 16h16a16 16 0 0 0 16-16v-192a16 16 0 0 0-16-16H384a16 16 0 0 0-16 16v16a16 16 0 0 0 16 16h144z"  horiz-adv-x="1024" />

    
    <glyph glyph-name="next" unicode="&#59046;" d="M340.688 65.76l11.312-11.328a16 16 0 0 1 22.624 0L685.76 365.552a16 16 0 0 1 0 22.64L374.624 699.312a16 16 0 0 1-22.624 0l-11.312-11.312a16 16 0 0 1 0-22.624l288.496-288.496-288.496-288.512a16 16 0 0 1 0-22.624z"  horiz-adv-x="1024" />

    
    <glyph glyph-name="eye_protection" unicode="&#59047;" d="M611.232 428.096a35.92 35.92 0 0 0-35.36-29.376 35.888 35.888 0 0 0-35.936 35.84 35.888 35.888 0 0 0 35.904 35.84 105.824 105.824 0 0 1-60.96 19.2c-58.608 0-106.048-47.312-106.048-105.6s47.44-105.6 106.032-105.6 106.032 47.312 106.032 105.6c0 15.744-3.456 30.672-9.664 44.096zM516.64 176c83.456 0 157.856 35.328 217.856 94.864 43.648 43.312 74.784 98.144 74.784 113.136 0 15.504-30.432 70.16-73.536 113.28C676.288 556.736 601.728 592 516.64 592c-84.576 0-158.944-35.968-218.88-96.64C255.136 452.192 224 396.832 224 384c0-12.32 31.856-67.872 75.008-111.2C359.488 212.016 433.696 176 516.64 176z m0-48C299.744 128 176 338.464 176 384s120.064 256 340.64 256c220.592 0 340.64-204.768 340.64-256s-123.744-256-340.64-256z m-1.76 102.4c-85.088 0-154.048 68.768-154.048 153.6s68.96 153.6 154.032 153.6c85.072 0 154.032-68.768 154.032-153.6s-68.96-153.6-154.032-153.6z"  horiz-adv-x="1024" />

    
    <glyph glyph-name="voice" unicode="&#59048;" d="M519.312 504h16a16 16 0 0 0 16-16v-168.352a16 16 0 0 0-16-16h-16a16 16 0 0 0-16 16V488a16 16 0 0 0 16 16zM408 459.472h16a16 16 0 0 0 16-16v-79.296a16 16 0 0 0-16-16h-16a16 16 0 0 0-16 16v79.296a16 16 0 0 0 16 16z m222.608 0h16a16 16 0 0 0 16-16v-79.296a16 16 0 0 0-16-16h-16a16 16 0 0 0-16 16v79.296a16 16 0 0 0 16 16zM418.512 176.72l0.032 0.08A311.04 311.04 0 0 1 520 160C675.2 160 800 271.68 800 408S675.2 656 520 656 240 544.32 240 408c0-70.592 33.52-136.56 91.568-183.392l-0.08-0.096 3.328-92.8 83.696 45.008z m-134 25.184C225.84 256.464 192 329.696 192 408 192 572.112 339.408 704 520 704S848 572.112 848 408 700.592 112 520 112c-32.992 0-65.328 4.4-96.224 12.944l-109.792-59.76a16 16 0 0 0-23.632 13.312l-5.84 123.408z"  horiz-adv-x="1024" />

    
    <glyph glyph-name="nickname" unicode="&#59049;" d="M432.56 368.832a150.192 150.192 0 0 0-73.6 129.248V553.76a150.256 150.256 0 0 0 300.512 0v-55.664a150.176 150.176 0 0 0-72.048-128.32A344.432 344.432 0 0 0 824.736 177.6c2.56-5.552 7.232-11.2 7.232-16.928v-4.784H832V66.08a16 16 0 0 0-16-16H208a16 16 0 0 0-16 16V146.096l0.32 0.032c0 5.28-0.032 10.656 0.336 16.096 0.368 5.408 4.416 10.608 6.8 15.792a344.432 344.432 0 0 0 233.104 190.816zM240 151.072v-52.992h544v53.008a296.16 296.16 0 0 1-544 0zM509.216 656a102.256 102.256 0 0 1-102.256-102.256v-55.664a102.256 102.256 0 0 1 204.512 0V553.76A102.256 102.256 0 0 1 509.232 656z"  horiz-adv-x="1024" />

    
    <glyph glyph-name="movie" unicode="&#59050;" d="M304 638.64v-505.712L717.824 385.76 304 638.64z m22.384-548.288A46.256 46.256 0 0 0 256 129.824V641.744a46.256 46.256 0 0 0 70.384 39.472l418.88-255.952a46.256 46.256 0 0 0 0-78.96L326.4 90.352z m173.408 277.76l-91.968-45.984a11.136 11.136 0 0 0-16.112 9.952v91.984a11.136 11.136 0 0 0 16.112 9.952l91.968-46a11.136 11.136 0 0 0 0-19.904z"  horiz-adv-x="1024" />

    
    <glyph glyph-name="problem" unicode="&#59051;" d="M535.088 321.056V280a16 16 0 0 0-16-16h-16a16 16 0 0 0-16 16V352a16 16 0 0 0 16 16h16.496a72 72 0 1 1-71.216 85.392 16 16 0 0 0-15.792-13.392h-18.64a13.92 13.92 0 0 0-13.824 15.744 120.016 120.016 0 0 0 238.976-15.744 120.016 120.016 0 0 0-104-118.944z m-32-137.056a16 16 0 0 0-16 16v16a16 16 0 0 0 16 16h16a16 16 0 0 0 16-16v-16a16 16 0 0 0-16-16h-16zM512 96c159.056 0 288 128.944 288 288s-128.944 288-288 288-288-128.944-288-288 128.944-288 288-288z m0-48c-185.568 0-336 150.432-336 336s150.432 336 336 336 336-150.432 336-336-150.432-336-336-336z"  horiz-adv-x="1024" />

    
    <glyph glyph-name="cancel" unicode="&#59099;" d="M509.92 420.032l74.032 74.032a16 16 0 0 0 22.624 0l11.312-11.312a16 16 0 0 0 0-22.64L543.84 386.08l74.032-74.032a16 16 0 0 0 0-22.624l-11.312-11.312a16 16 0 0 0-22.624 0L509.92 352.16l-74.032-74.032a16 16 0 0 0-22.64 0l-11.312 11.312a16 16 0 0 0 0 22.624l74.032 74.032-74.032 74.032a16 16 0 0 0 0 22.64l11.312 11.312a16 16 0 0 0 22.64 0l74.032-74.032z m0-319.856c157.904 0 285.92 128 285.92 285.92C795.84 544 667.808 672 509.92 672 352 672 224 544 224 386.08c0-157.904 128-285.92 285.92-285.92z m0-48C325.504 52.16 176 201.664 176 386.08 176 570.48 325.504 720 509.92 720c184.416 0 333.92-149.504 333.92-333.92 0-184.416-149.504-333.92-333.92-333.92z"  horiz-adv-x="1024" />

    
    <glyph glyph-name="geniecalling" unicode="&#59101;" d="M722.784 500.576l123.392 59.248a30.4 30.4 0 0 0 43.568-27.408v-306.576a30.4 30.4 0 0 0-43.568-27.408l-123.392 59.248v-96.288a16 16 0 0 0-16-16H160a16 16 0 0 0-16 16V608a16 16 0 0 0 16 16h546.784a16 16 0 0 0 16-16v-107.424z m-384-229.616v16a16 16 0 0 0 16 16h168.352a16 16 0 0 0 16-16v-16a16 16 0 0 0-16-16H354.784a16 16 0 0 0-16 16zM192 193.392h482.784V576H192v-382.608z m545.392 110.512l104.352-50.08V504.432l-104.352-50.096v-150.448z"  horiz-adv-x="1024" />

    
    <glyph glyph-name="faimlyalbum" unicode="&#59102;" d="M637.216 460.16a42.784 42.784 0 1 1-85.552 0.016 42.784 42.784 0 0 1 85.552 0z m48 0a90.784 90.784 0 1 0-181.552 0 90.784 90.784 0 0 0 181.552 0zM299.792 221.024l-11.76 10.848a16 16 0 0 0-0.896 22.608l128.352 139.072a16 16 0 0 0 23.072 0.448l113.808-113.92 70.896 64.752a16 16 0 0 0 22.176-0.576l88.4-89.552a16 16 0 0 0-0.16-22.64l-11.36-11.232a16 16 0 0 0-22.64 0.16l-66.768 67.632-70.768-64.624a16 16 0 0 0-22.112 0.512l-111.872 112-105.76-114.576a16 16 0 0 0-22.608-0.912zM240 161.392h530.784V592H240v-430.608zM818.784 624v-494.608a16 16 0 0 0-16-16H208a16 16 0 0 0-16 16V624a16 16 0 0 0 16 16h594.784a16 16 0 0 0 16-16z"  horiz-adv-x="1024" />

    
    <glyph glyph-name="search" unicode="&#59105;" d="M685.6 235.664l155.152-155.168a16 16 0 0 0 0-22.624l-11.312-11.328a16 16 0 0 0-22.624 0l-158.528 158.544a289.792 289.792 0 0 0-165.152-51.36C322.336 153.744 192 284.096 192 444.88 192 605.664 322.336 736 483.136 736c160.784 0 291.12-130.336 291.12-291.136 0-82.112-33.984-156.272-88.672-209.2z m-202.464-33.92c134.272 0 243.12 108.848 243.12 243.12C726.256 579.152 617.408 688 483.136 688 348.848 688 240 579.152 240 444.864c0-134.272 108.848-243.12 243.136-243.12z"  horiz-adv-x="1024" />

    
    <glyph glyph-name="instruction" unicode="&#59106;" d="M343.312 521.744v16a16 16 0 0 0 16 16h23.648a16 16 0 0 0 16-16v-16a16 16 0 0 0-16-16h-23.648a16 16 0 0 0-16 16z m100.16 0v16a16 16 0 0 0 16 16H650.08a16 16 0 0 0 16-16v-16a16 16 0 0 0-16-16H459.472a16 16 0 0 0-16 16z m-100.16-144.704v16a16 16 0 0 0 16 16h23.648a16 16 0 0 0 16-16v-16a16 16 0 0 0-16-16h-23.648a16 16 0 0 0-16 16z m100.16 0v16a16 16 0 0 0 16 16H650.08a16 16 0 0 0 16-16v-16a16 16 0 0 0-16-16H459.472a16 16 0 0 0-16 16z m-100.16-144.688v16a16 16 0 0 0 16 16h23.648a16 16 0 0 0 16-16v-16a16 16 0 0 0-16-16h-23.648a16 16 0 0 0-16 16z m100.16 0v16a16 16 0 0 0 16 16H650.08a16 16 0 0 0 16-16v-16a16 16 0 0 0-16-16H459.472a16 16 0 0 0-16 16zM256 656v-541.92h497.392V656H256z m529.392-589.92H224a16 16 0 0 0-16 16V688a16 16 0 0 0 16 16h561.392a16 16 0 0 0 16-16v-605.92a16 16 0 0 0-16-16z"  horiz-adv-x="1024" />

    


  </font>
</defs>
</svg>
